百度云资源论坛

 找回密码
 立即注册
搜索

尤利西斯:黑暗的奥德赛/暗黑解码战 Ulysses.A.Dark.Odyssey.2018.1...

[复制链接]
百度云电影 发表于 2020-10-12 12:13:59 | 显示全部楼层 |阅读模式
帖子完整标题:尤利西斯:黑暗的奥德赛/暗黑解码战 Ulysses.A.Dark.Odyssey.2018.1080p.BluRay.x264-GETiT 9.93GB




◎译  名 尤利西斯:黑暗的奥德赛/暗黑解码战
◎片  名 Ulysses: A Dark Odyssey
◎年  代 2018
◎产  地 意大利
◎类  别 剧情 / 动作
◎语  言 英语
◎上映日期 2018-06-14(意大利)
◎编  剧 詹姆斯·科因 James Coyne
◎主  演 丹尼·格洛弗 Danny Glover
       安娜玛丽亚·玛琳卡 Anamaria Marinca
       乌多·基尔 Udo Kier
       夏洛特·柯克 Charlotte Kirk
       Walter Nudo

◎标  签 意大利 | 2018 | 动作 | 剧情 | 犯罪 | 未来 | 意大利电影 | 网络大电影

◎简  介

  失憶的軍人–尤利西斯,在邊遠地區被囚禁了七年,受盡折磨、經歷痛苦和創傷的他,從中東戰爭中逃脫返家,發現他的妻子–佩內洛普不見了,擔心她的失蹤與黑社會有關,尤利西斯開始在這座城市尋找他心愛的妻子,他能找到他的妻子嗎?這一路上又會發生什麼重大轉變?
Video
ID                                       : 1
Format                                   : AVC
Format/Info                              : Advanced Video Codec
Format settings                          : CABAC / 5 Ref Frames
Format settings, CABAC                   : Yes
Format settings, Reference frames        : 5 frames
Codec ID                                 : V_MPEG4/ISO/AVC
Duration                                 : 1 h 55 min
Bit rate                                 : 8 769 kb/s
Width                                    : 1 920 pixels
Height                                   : 804 pixels
Display aspect ratio                     : 2.40:1
Frame rate mode                          : Constant
Frame rate                               : 24.000 FPS
Color space                              : YUV
Chroma subsampling                       : 4:2:0
Bit depth                                : 8 bits
Scan type                                : Progressive
Bits/(Pixel*Frame)                       : 0.237
Stream size                              : 7.08 GiB (71%)
Writing library                          : x264 core 160 r3000 33f9e14
Encoding settings                        : cabac=1 / ref=5 / deblock=1:-3:-3 / analyse=0x3:0x133 / me=umh / subme=9 / psy=1 / psy_rd=1.00:0.00 / mixed_ref=1 / me_range=16 / chroma_me=1 / trellis=2 / 8x8dct=1 / cqm=0 / deadzone=21,11 / fast_pskip=1 / chroma_qp_offset=-2 / threads=18 / lookahead_threads=1 / sliced_threads=0 / nr=0 / decimate=1 / interlaced=0 / bluray_compat=0 / constrained_intra=0 / bframes=3 / b_pyramid=2 / b_adapt=2 / b_bias=0 / direct=3 / weightb=1 / open_gop=0 / weightp=2 / keyint=250 / keyint_min=24 / scenecut=40 / intra_refresh=0 / rc_lookahead=60 / rc=crf / mbtree=1 / crf=17.0 / qcomp=0.60 / qpmin=0 / qpmax=69 / qpstep=4 / ip_ratio=1.40 / aq=3:0.80
Language                                 : English
Default                                  : Yes
Forced                                   : No
Color range                              : Limited
Matrix coefficients                      : BT.709

Audio
ID                                       : 2
Format                                   : DTS XLL
Format/Info                              : Digital Theater Systems
Commercial name                          : DTS-HD Master Audio
Codec ID                                 : A_DTS
Duration                                 : 1 h 55 min
Bit rate mode                            : Variable
Bit rate                                 : 3 532 kb/s
Channel(s)                               : 6 channels
Channel layout                           : C L R Ls Rs LFE
Sampling rate                            : 48.0 kHz
Frame rate                               : 93.750 FPS (512 SPF)
Bit depth                                : 24 bits
Compression mode                         : Lossless
Stream size                              : 2.85 GiB (29%)
Title                                    : dts
Language                                 : English
Default                                  : Yes
Forced                                   : No

Menu
00:00:00.000                             : en:00:00:00.000
00:12:30.000                             : en:00:12:30.000
00:26:53.000                             : en:00:26:53.000
00:38:12.000                             : en:00:38:12.000
00:50:50.000                             : en:00:50:50.000
01:05:02.000                             : en:01:05:02.000
01:18:54.000                             : en:01:18:54.000
01:34:04.000                             : en:01:34:04.000
01:50:12.000                             : en:01:50:12.000




                                                                                                                                                                                                        


c3dfa07db5e09d0d7e16b6d081470062.zip (50.39 KB, 下载次数: 0)

回复

使用道具 举报

小黑屋|百度云资源论坛 |网站地图

本网站所有资源来自网络,如无意中侵犯了您的权益,请发邮件至 [email protected],立即清除相关链接

GMT+8, 2020-10-28 02:56 , Processed in 0.197659 second(s), 23 queries .

Powered by Discuz! X3.2

© 2001-2013 Comsenz Inc.

快速回复 返回顶部 返回列表