百度云资源论坛

 找回密码
 立即注册
搜索

捉妖记2 Monster.Hunt.2.2018.CHINESE.1080p.BluRay.x264.DD5.1-CHD 12.54GB

[复制链接]
百度云电影 发表于 2020-10-12 12:13:59 | 显示全部楼层 |阅读模式
帖子完整标题:捉妖记2 Monster.Hunt.2.2018.CHINESE.1080p.BluRay.x264.DD5.1-CHD 12.54GB




◎译  名 Monster Hunt 2
◎片  名 捉妖记2
◎年  代 2018
◎产  地 中国大陆 / 中国香港
◎类  别 喜剧 / 动作 / 奇幻 / 古装
◎语  言 汉语普通话
◎上映日期 2018-02-16(中国大陆)
◎IMDb评分  5.3/10 from 1300 users
◎片  长 110分钟
◎导  演 许诚毅 Raman Hui
◎编  剧 吴炜伦 Wai Lun Ng / 陈咏燊 Sunny Chan / 苏亮 Liang Su
◎主  演 梁朝伟 Tony Leung Chiu Wai
       白百何 Baihe Bai
       井柏然 Boran Jing
       李宇春 Yuchun Li
       杨祐宁 Tony Yang
       大鹏 Da Peng
       吴君如 Sandra Ng
       曾志伟 Eric Tsang
       黄磊 Lei Huang
       柳岩 Yan Liu
       吴莫愁 Mouchou Wu
       伍嘉成 Humphrey Wu
       赵磊 Lay Zhao
       谷嘉诚 Jason
       彭楚粤 Chuyue Peng
       陈泽希 Emn Chen
       郭子凡 G-Ziven
       肖战 Sean Xiao
       焉栩嘉 Xujia Yan
       夏之光 Zhiguang Xia
       姜超 Chao Jiang
       娄艺潇 Yixiao Lou
       张俪 Li Zhang


◎标  签 喜剧 | 搞笑 | 奇幻 | 萌 | 中国大陆 | 古装 | 2018 | 冒险

◎简  介   

  上一集与胡巴分别后,天荫(井柏然 饰)带着小岚(白百何 饰)踏上寻父之路,在义薄云天的天师堂堂主云大哥(杨祐宁 饰)的帮助下,二人得知天荫父亲宋戴天的护妖轨迹;而重回永宁村的胡巴再度被妖王追杀,颠沛流离逃亡时结识大赌徒屠四谷(梁朝伟 饰)和一只妖怪,三人一起过着相依为命的生活,但又因屠四谷欠下的巨额赌债横生诸多波折。与此同时 ,江湖盛传小妖王胡巴的重金悬赏令,妖界大军、天师精英、绿林草莽闻风而动,多方势力为抢夺胡巴在清水镇掀起腥风血雨。千钧一发之际,念子心切的天荫和小岚通过天师堂找到胡巴并一起逃离险境。岂料,一场更大的惊天阴谋尾随而至,伺机而动……

◎获奖情况  

  第55届台北金马影展(2018)
  金马奖 最佳动作设计(提名) 谷垣健治
  金马奖 最佳视觉效果(提名) 潘国瑜

  第38届香港电影金像奖(2019)
  最佳摄影(提名) 潘耀明
  最佳美术指导(提名) 种田阳平 / 吉约姆·阿瑞托斯 / 李健威
  最佳服装造型设计(提名) 奚仲文
  最佳音响效果(提名) 姚俊轩 / 李耀强
  最佳视觉效果(提名) 潘国瑜

  第4届豆瓣电影年度榜单(2017)
  最值得期待的华语电影
Video
ID                                       : 1
Format                                   : AVC
Format/Info                              : Advanced Video Codec
Format settings                          : CABAC / 4 Ref Frames
Format settings, CABAC                   : Yes
Format settings, ReFrames                : 4 frames
Codec ID                                 : V_MPEG4/ISO/AVC
Duration                                 : 1 h 50 min
Bit rate                                 : 15.0 Mb/s
Width                                    : 1 920 pixels
Height                                   : 804 pixels
Display aspect ratio                     : 2.40:1
Frame rate mode                          : Constant
Frame rate                               : 23.976 (24000/1001/189150) FPS
Color space                              : YUV
Chroma subsampling                       : 4:2:0
Bit depth                                : 8 bits
Scan type                                : Progressive
Bits/(Pixel*Frame)                       : 0.405
Stream size                              : 11.5 GiB (92%)
Writing library                          : x264 core 155 r2867+74 66b5600 t_mod_Custom_2
Encoding settings                        : cabac=1 / ref=4 / deblock=1:-3:-3 / analyse=0x3:0x133 / me=umh / subme=10 / psy=1 / fade_compensate=0.00 / psy_rd=0.95:0.10 / mixed_ref=1 / me_range=48 / chroma_me=1 / trellis=2 / 8x8dct=1 / cqm=0 / deadzone=21,11 / fast_pskip=0 / chroma_qp_offset=-4 / threads=18 / lookahead_threads=3 / sliced_threads=0 / nr=0 / decimate=1 / interlaced=0 / bluray_compat=0 / constrained_intra=0 / fgo=0 / bframes=8 / b_pyramid=2 / b_adapt=2 / b_bias=0 / direct=3 / weightb=1 / open_gop=0 / weightp=2 / keyint=250 / keyint_min=23 / scenecut=40 / intra_refresh=0 / rc_lookahead=30 / rc=2pass / mbtree=0 / bitrate=15000 / ratetol=1.0 / qcomp=0.70 / qpmin=0:0:0 / qpmax=69:69:69 / qpstep=4 / cplxblur=20.0 / qblur=0.5 / vbv_maxrate=35000 / vbv_bufsize=35000 / nal_hrd=none / filler=0 / ip_ratio=1.40 / pb_ratio=1.30 / aq=3:1.00 / aq-sensitivity=10.00 / aq-factor=1.00:1.00:1.00 / aq2=0 / aq3=2:[0.50:0.50]:[0.50:0.50]:[0.50:0.50]:[0.50:0.50] / aq3-sensitivity=10.00 / aq3-factor=[1.00:1.00]:[1.00:1.00]:[1.00:1.00] / aq3-boundary=192:64:24
Language                                 : English
Default                                  : Yes
Forced                                   : No

Audio #1
ID                                       : 2
Format                                   : AC-3
Format/Info                              : Audio Coding 3
Codec ID                                 : A_AC3
Duration                                 : 1 h 50 min
Bit rate mode                            : Constant
Bit rate                                 : 640 kb/s
Channel(s)                               : 6 channels
Channel positions                        : Front: L C R, Side: L R, LFE
Sampling rate                            : 48.0 kHz
Frame rate                               : 31.250 FPS (1536 SPF)
Bit depth                                : 16 bits
Compression mode                         : Lossy
Stream size                              : 505 MiB (4%)
Language                                 : Chinese
Service kind                             : Complete Main
Default                                  : Yes
Forced                                   : No

Audio #2
ID                                       : 3
Format                                   : AC-3
Format/Info                              : Audio Coding 3
Codec ID                                 : A_AC3
Duration                                 : 1 h 50 min
Bit rate mode                            : Constant
Bit rate                                 : 640 kb/s
Channel(s)                               : 6 channels
Channel positions                        : Front: L C R, Side: L R, LFE
Sampling rate                            : 48.0 kHz
Frame rate                               : 31.250 FPS (1536 SPF)
Bit depth                                : 16 bits
Compression mode                         : Lossy
Stream size                              : 505 MiB (4%)
Language                                 : Chinese
Service kind                             : Complete Main
Default                                  : No
Forced                                   : No

Text #1
ID                                       : 4
Format                                   : PGS
Muxing mode                              : zlib
Codec ID                                 : S_HDMV/PGS
Codec ID/Info                            : Picture based subtitle format used on BDs/HD-DVDs
Duration                                 : 1 h 44 min
Bit rate                                 : 24.4 kb/s
Count of elements                        : 2316
Stream size                              : 18.2 MiB (0%)
Language                                 : Chinese
Default                                  : Yes
Forced                                   : No

Text #2
ID                                       : 5
Format                                   : PGS
Muxing mode                              : zlib
Codec ID                                 : S_HDMV/PGS
Codec ID/Info                            : Picture based subtitle format used on BDs/HD-DVDs
Duration                                 : 1 h 44 min
Bit rate                                 : 25.8 kb/s
Count of elements                        : 2412
Stream size                              : 19.2 MiB (0%)
Language                                 : Chinese
Default                                  : No
Forced                                   : No

Menu
00:00:00.000                             : en:00:00:00.000
00:05:32.332                             : en:00:05:32.332
00:16:36.787                             : en:00:16:36.787
00:25:06.922                             : en:00:25:06.922
00:36:28.937                             : en:00:36:28.937
00:46:05.805                             : en:00:46:05.805
00:55:04.343                             : en:00:55:04.343
01:04:44.214                             : en:01:04:44.214
01:14:08.110                             : en:01:14:08.110
01:22:13.804                             : en:01:22:13.804
01:31:25.730                             : en:01:31:25.730
01:41:09.981                             : en:01:41:09.981




                                                                                                                                                                                                        
                                                                                                                                                                                                                                          
4c6ae6c1607893376032f142f27f10bd.zip (64.15 KB, 下载次数: 0)

回复

使用道具 举报

小黑屋|百度云资源论坛 |网站地图

本网站所有资源来自网络,如无意中侵犯了您的权益,请发邮件至 [email protected],立即清除相关链接

GMT+8, 2020-10-25 21:36 , Processed in 0.103446 second(s), 23 queries .

Powered by Discuz! X3.2

© 2001-2013 Comsenz Inc.

快速回复 返回顶部 返回列表