百度云资源论坛

 找回密码
 立即注册
搜索

心魔炼狱 Inner.Ghosts.2018.1080p.BluRay.x264.DTS-HD.MA.5.1-FGT 9.25GB

[复制链接]
百度云电影 发表于 2020-10-12 12:13:59 | 显示全部楼层 |阅读模式
帖子完整标题:心魔炼狱 Inner.Ghosts.2018.1080p.BluRay.x264.DTS-HD.MA.5.1-FGT 9.25GB




◎译  名 心魔炼狱
◎片  名 Inner Ghosts
◎年  代 2018
◎产  地 葡萄牙/巴西
◎类  别 恐怖
◎语  言 英语
◎上映日期 2018-09-07(葡萄牙)
◎IMDb评分  3.8/10 from 228 users
◎片  长 90分钟

◎标  签 恐怖 | 拉美 | 惊悚 | 阿飘不甘寂寞系列 | 葡萄牙电影 | 葡萄牙 | 网络大电影 | 巴西

◎简  介

  If ghosts can think and remember who they are, then the physical brain is not the only place where we store our inner selves. Helen is asked to train two young women into the art of communicating with the dead. But Helen's days as a medium are long gone. In fact, she gave up that life 15 years ago when she lost her daughter. Today Helen is a different woman dedicated to her career in brain research. Things start to change when a visit from the other side offers her the design of a device that can do amazing things. But to everything there is a risk.
Video
ID                                       : 1
Format                                   : AVC
Format/Info                              : Advanced Video Codec
Format settings                          : CABAC / 4 Ref Frames
Format settings, CABAC                   : Yes
Format settings, Reference frames        : 4 frames
Codec ID                                 : V_MPEG4/ISO/AVC
Duration                                 : 1 h 28 min
Bit rate                                 : 11.5 Mb/s
Width                                    : 1 920 pixels
Height                                   : 800 pixels
Display aspect ratio                     : 2.40:1
Frame rate mode                          : Constant
Frame rate                               : 25.000 FPS
Color space                              : YUV
Chroma subsampling                       : 4:2:0
Bit depth                                : 8 bits
Scan type                                : Progressive
Bits/(Pixel*Frame)                       : 0.299
Stream size                              : 7.13 GiB (77%)
Title                                    : Inner.Ghosts.2018.1080p.BluRay.x264.DTS-HD.MA.5.1-FGT
Writing library                          : x264 core 148 r2748 97eaef2
Encoding settings                        : cabac=1 / ref=4 / deblock=1:-2:-2 / analyse=0x3:0x113 / me=umh / subme=9 / psy=1 / psy_rd=1.00:0.15 / mixed_ref=1 / me_range=16 / chroma_me=1 / trellis=2 / 8x8dct=1 / cqm=0 / deadzone=21,11 / fast_pskip=1 / chroma_qp_offset=-3 / threads=72 / lookahead_threads=3 / sliced_threads=0 / nr=0 / decimate=1 / interlaced=0 / bluray_compat=0 / constrained_intra=0 / bframes=3 / b_pyramid=2 / b_adapt=1 / b_bias=0 / direct=3 / weightb=1 / open_gop=0 / weightp=2 / keyint=250 / keyint_min=25 / scenecut=40 / intra_refresh=0 / rc_lookahead=50 / rc=2pass / mbtree=1 / bitrate=11500 / ratetol=1.0 / qcomp=0.60 / qpmin=0 / qpmax=69 / qpstep=4 / cplxblur=20.0 / qblur=0.5 / vbv_maxrate=31250 / vbv_bufsize=31250 / nal_hrd=none / filler=0 / ip_ratio=1.40 / aq=1:1.00
Language                                 : English
Default                                  : Yes
Forced                                   : No

Audio
ID                                       : 2
ID in the original source medium         : 4353 (0x1101)
Format                                   : DTS XLL
Format/Info                              : Digital Theater Systems
Commercial name                          : DTS-HD Master Audio
Codec ID                                 : A_DTS
Duration                                 : 1 h 28 min
Bit rate mode                            : Variable
Bit rate                                 : 3 416 kb/s
Channel(s)                               : 6 channels
Channel layout                           : C L R Ls Rs LFE
Sampling rate                            : 48.0 kHz
Frame rate                               : 93.750 FPS (512 SPF)
Bit depth                                : 24 bits
Compression mode                         : Lossless
Stream size                              : 2.12 GiB (23%)
Title                                    : Inner.Ghosts.2018.1080p.BluRay.x264.DTS-HD.MA.5.1-FGT
Language                                 : English
Default                                  : Yes
Forced                                   : No
Original source medium                   : Blu-ray

Text
ID                                       : 3
Format                                   : UTF-8
Codec ID                                 : S_TEXT/UTF8
Codec ID/Info                            : UTF-8 Plain Text
Duration                                 : 1 h 19 min
Bit rate                                 : 62 b/s
Count of elements                        : 1229
Stream size                              : 36.5 KiB (0%)
Language                                 : English
Default                                  : Yes
Forced                                   : No

Menu
00:00:00.000                             : de:Chapter 01
00:10:43.800                             : de:Chapter 02
00:20:50.080                             : de:Chapter 03
00:31:40.680                             : de:Chapter 04
00:42:00.080                             : de:Chapter 05
00:55:18.960                             : de:Chapter 06
01:07:24.840                             : de:Chapter 07
01:17:58.680                             : de:Chapter 08
01:25:03.160                             : de:Chapter 09




                                                                                                                                                                                                        
                                                                                                                                                                                                                                                                                                                                                                                                                                                                                    
5ea0ff7874b2e532b2d9def3184a8c99.zip (46.91 KB, 下载次数: 0)

回复

使用道具 举报

小黑屋|百度云资源论坛 |网站地图

本网站所有资源来自网络,如无意中侵犯了您的权益,请发邮件至 [email protected],立即清除相关链接

GMT+8, 2020-10-25 21:59 , Processed in 0.102458 second(s), 23 queries .

Powered by Discuz! X3.2

© 2001-2013 Comsenz Inc.

快速回复 返回顶部 返回列表