百度云资源论坛

 找回密码
 立即注册
搜索

时间已过 Some.Time.Later.2018.1080p.BluRay.x264-BiPOLAR 11.41GB

[复制链接]
百度云电影 发表于 2020-10-12 12:13:59 | 显示全部楼层 |阅读模式
帖子完整标题:时间已过 Some.Time.Later.2018.1080p.BluRay.x264-BiPOLAR 11.41GB




◎译  名 时间已过
◎片  名 Tiempo después
◎年  代 2018
◎产  地 西班牙
◎类  别 喜剧
◎语  言 西班牙语
◎上映日期 
◎IMDb评分  5.8/10 from 1151 users
◎导  演 何塞·路易斯·奎尔达 José Luis Cuerda
◎编  剧 何塞·路易斯·奎尔达 José Luis Cuerda
◎主  演 布兰卡·苏亚雷斯 Blanca Suárez
       安东尼·德拉托尔 Anthony De La Torre
       罗伯托·阿拉莫 Roberto álamo

◎标  签 西班牙 | Suárez,Blanca | P-SanSebastianB非竞赛展映 | M西班牙 | D何塞·路易斯·奎尔达 | 2018 | 2010s

◎简  介

  暂无相关剧情介绍
Video
ID                                       : 1
Format                                   : AVC
Format/Info                              : Advanced Video Codec
Format settings                          : CABAC / 5 Ref Frames
Format settings, CABAC                   : Yes
Format settings, Reference frames        : 5 frames
Codec ID                                 : V_MPEG4/ISO/AVC
Duration                                 : 1 h 39 min
Bit rate                                 : 14.7 Mb/s
Width                                    : 1 920 pixels
Height                                   : 804 pixels
Display aspect ratio                     : 2.40:1
Frame rate mode                          : Constant
Frame rate                               : 24.000 FPS
Color space                              : YUV
Chroma subsampling                       : 4:2:0
Bit depth                                : 8 bits
Scan type                                : Progressive
Bits/(Pixel*Frame)                       : 0.396
Stream size                              : 10.2 GiB (90%)
Writing library                          : x264 core 161 r3018 db0d417
Encoding settings                        : cabac=1 / ref=5 / deblock=1:-3:-3 / analyse=0x3:0x133 / me=umh / subme=10 / psy=1 / psy_rd=1.00:0.15 / mixed_ref=1 / me_range=24 / chroma_me=1 / trellis=2 / 8x8dct=1 / cqm=0 / deadzone=21,11 / fast_pskip=1 / chroma_qp_offset=-3 / threads=18 / lookahead_threads=3 / sliced_threads=0 / nr=0 / decimate=1 / interlaced=0 / bluray_compat=0 / constrained_intra=0 / bframes=8 / b_pyramid=2 / b_adapt=2 / b_bias=0 / direct=3 / weightb=1 / open_gop=0 / weightp=2 / keyint=250 / keyint_min=24 / scenecut=40 / intra_refresh=0 / rc_lookahead=60 / rc=crf / mbtree=1 / crf=14.0 / qcomp=0.60 / qpmin=0 / qpmax=69 / qpstep=4 / ip_ratio=1.40 / aq=3:0.70
Language                                 : English
Default                                  : Yes
Forced                                   : No
Color range                              : Limited
Matrix coefficients                      : BT.709

Audio
ID                                       : 2
Format                                   : DTS XLL
Format/Info                              : Digital Theater Systems
Commercial name                          : DTS-HD Master Audio
Codec ID                                 : A_DTS
Duration                                 : 1 h 39 min
Bit rate mode                            : Variable
Bit rate                                 : 1 697 kb/s
Channel(s)                               : 6 channels
Channel layout                           : C L R Ls Rs LFE
Sampling rate                            : 48.0 kHz
Frame rate                               : 93.750 FPS (512 SPF)
Bit depth                                : 24 bits
Compression mode                         : Lossless
Stream size                              : 1.18 GiB (10%)
Language                                 : Spanish
Default                                  : Yes
Forced                                   : No

Text #1
ID                                       : 3
Format                                   : UTF-8
Codec ID                                 : S_TEXT/UTF8
Codec ID/Info                            : UTF-8 Plain Text
Duration                                 : 1 h 34 min
Bit rate                                 : 79 b/s
Count of elements                        : 1527
Stream size                              : 54.4 KiB (0%)
Title                                    : English
Language                                 : English
Default                                  : Yes
Forced                                   : Yes

Text #2
ID                                       : 4
Format                                   : PGS
Muxing mode                              : zlib
Codec ID                                 : S_HDMV/PGS
Codec ID/Info                            : Picture based subtitle format used on BDs/HD-DVDs
Duration                                 : 1 h 34 min
Bit rate                                 : 8 509 b/s
Count of elements                        : 3055
Stream size                              : 5.78 MiB (0%)
Title                                    : English
Language                                 : English
Default                                  : No
Forced                                   : No

Text #3
ID                                       : 5
Format                                   : PGS
Muxing mode                              : zlib
Codec ID                                 : S_HDMV/PGS
Codec ID/Info                            : Picture based subtitle format used on BDs/HD-DVDs
Duration                                 : 1 h 34 min
Bit rate                                 : 8 842 b/s
Count of elements                        : 3063
Stream size                              : 6.00 MiB (0%)
Title                                    : Spanish
Language                                 : Spanish
Default                                  : No
Forced                                   : No

Menu
00:00:00.000                             : en:00:00:00.000
00:09:41.542                             : en:00:09:41.542
00:19:37.500                             : en:00:19:37.500
00:30:05.708                             : en:00:30:05.708
00:39:45.083                             : en:00:39:45.083
00:50:50.208                             : en:00:50:50.208
00:59:35.000                             : en:00:59:35.000
01:09:59.583                             : en:01:09:59.583
01:19:22.208                             : en:01:19:22.208
01:27:50.667                             : en:01:27:50.667
01:34:58.583                             : en:01:34:58.583




                                                                                                                                                                                                        
                                                                                                                                                                                                                                                                                                                                                                                                                                                                                    
cb18b64f32a607267fbaa5d5c7730867.zip (57.77 KB, 下载次数: 0)

回复

使用道具 举报

小黑屋|百度云资源论坛 |网站地图

本网站所有资源来自网络,如无意中侵犯了您的权益,请发邮件至 [email protected],立即清除相关链接

GMT+8, 2020-10-25 21:56 , Processed in 0.097666 second(s), 23 queries .

Powered by Discuz! X3.2

© 2001-2013 Comsenz Inc.

快速回复 返回顶部 返回列表