百度云资源论坛

 找回密码
 立即注册
搜索

圣地亚哥意大利/意大利有个圣地牙哥 Santiago.Italia.2018.1080p....

[复制链接]
百度云电影 发表于 2020-10-11 11:47:36 | 显示全部楼层 |阅读模式
帖子完整标题:圣地亚哥意大利/意大利有个圣地牙哥 Santiago.Italia.2018.1080p.BluRay.x264-BiPOLAR 7.87GB




◎译  名 圣地亚哥,意大利/意大利有个圣地牙哥(港)/意大利的圣地亚哥
◎片  名 Santiago, Italia
◎年  代 2018
◎产  地 意大利,法国,智利
◎类  别 纪录片
◎语  言 意大利语
◎上映日期 2018-12-06(意大利)
◎片  长 80分钟
◎导  演 南尼·莫莱蒂 Nanni Moretti
◎编  剧 南尼·莫莱蒂 Nanni Moretti
◎主  演 南尼·莫莱蒂 Nanni Moretti

◎标  签 纪录片 | 意大利 | 智利 | 南尼·莫莱蒂 | 政变 | 2018 | 莫莱蒂 | 2019

◎简  介

  南尼·莫莱蒂导演全新纪录片[圣地亚哥,意大利](Santiago, Italia,暂译)将亮相第36届意大利都灵国际电影节,作为本届电影节的闭幕影片。影片围绕1973年9月11日智利发生政变后几个月发生的故事展开,将聚焦智利政治家、军人奥古斯托·皮诺切特。该片意大利将于12月6日上映。

◎获奖情况

  第64届意大利大卫奖 ?(2019)
  最佳纪录片
Video
ID                                       : 1
Format                                   : AVC
Format/Info                              : Advanced Video Codec
Format settings                          : CABAC / 4 Ref Frames
Format settings, CABAC                   : Yes
Format settings, Reference frames        : 4 frames
Codec ID                                 : V_MPEG4/ISO/AVC
Duration                                 : 1 h 23 min
Bit rate                                 : 11.8 Mb/s
Width                                    : 1 920 pixels
Height                                   : 1 080 pixels
Display aspect ratio                     : 16:9
Frame rate mode                          : Constant
Frame rate                               : 23.976 (24000/1001/189150) FPS
Color space                              : YUV
Chroma subsampling                       : 4:2:0
Bit depth                                : 8 bits
Scan type                                : Progressive
Bits/(Pixel*Frame)                       : 0.237
Stream size                              : 6.91 GiB (88%)
Writing library                          : x264 core 161 r3018 db0d417
Encoding settings                        : cabac=1 / ref=4 / deblock=1:-3:-3 / analyse=0x3:0x133 / me=umh / subme=10 / psy=1 / psy_rd=1.00:0.15 / mixed_ref=1 / me_range=24 / chroma_me=1 / trellis=2 / 8x8dct=1 / cqm=0 / deadzone=21,11 / fast_pskip=1 / chroma_qp_offset=-3 / threads=18 / lookahead_threads=3 / sliced_threads=0 / nr=0 / decimate=1 / interlaced=0 / bluray_compat=0 / constrained_intra=0 / bframes=8 / b_pyramid=2 / b_adapt=2 / b_bias=0 / direct=3 / weightb=1 / open_gop=0 / weightp=2 / keyint=250 / keyint_min=23 / scenecut=40 / intra_refresh=0 / rc_lookahead=60 / rc=crf / mbtree=1 / crf=15.2 / qcomp=0.60 / qpmin=0 / qpmax=69 / qpstep=4 / ip_ratio=1.40 / aq=3:0.80
Language                                 : English
Default                                  : Yes
Forced                                   : No
Color range                              : Limited
Matrix coefficients                      : BT.709

Audio
ID                                       : 2
Format                                   : DTS XLL
Format/Info                              : Digital Theater Systems
Commercial name                          : DTS-HD Master Audio
Codec ID                                 : A_DTS
Duration                                 : 1 h 23 min
Bit rate mode                            : Variable
Bit rate                                 : 1 605 kb/s
Channel(s)                               : 6 channels
Channel layout                           : C L R Ls Rs LFE
Sampling rate                            : 48.0 kHz
Frame rate                               : 93.750 FPS (512 SPF)
Bit depth                                : 16 bits
Compression mode                         : Lossless
Stream size                              : 962 MiB (12%)
Language                                 : Spanish
Default                                  : Yes
Forced                                   : No

Text #1
ID                                       : 3
Format                                   : UTF-8
Codec ID                                 : S_TEXT/UTF8
Codec ID/Info                            : UTF-8 Plain Text
Duration                                 : 1 h 21 min
Bit rate                                 : 70 b/s
Count of elements                        : 1292
Stream size                              : 42.6 KiB (0%)
Title                                    : English
Language                                 : English
Default                                  : Yes
Forced                                   : Yes

Text #2
ID                                       : 4
Format                                   : PGS
Muxing mode                              : zlib
Codec ID                                 : S_HDMV/PGS
Codec ID/Info                            : Picture based subtitle format used on BDs/HD-DVDs
Duration                                 : 1 h 21 min
Bit rate                                 : 14.1 kb/s
Count of elements                        : 2584
Stream size                              : 8.27 MiB (0%)
Title                                    : English
Language                                 : English
Default                                  : No
Forced                                   : No

Text #3
ID                                       : 5
Format                                   : PGS
Muxing mode                              : zlib
Codec ID                                 : S_HDMV/PGS
Codec ID/Info                            : Picture based subtitle format used on BDs/HD-DVDs
Duration                                 : 1 h 16 min
Bit rate                                 : 6 318 b/s
Count of elements                        : 998
Stream size                              : 3.46 MiB (0%)
Title                                    : Italian forced
Language                                 : Italian
Default                                  : No
Forced                                   : No

Text #4
ID                                       : 6
Format                                   : PGS
Muxing mode                              : zlib
Codec ID                                 : S_HDMV/PGS
Codec ID/Info                            : Picture based subtitle format used on BDs/HD-DVDs
Duration                                 : 1 h 21 min
Bit rate                                 : 15.5 kb/s
Count of elements                        : 2534
Stream size                              : 9.03 MiB (0%)
Title                                    : Italian SDH
Language                                 : Italian
Default                                  : No
Forced                                   : No

Menu
00:00:00.000                             : en:00:00:00.000
00:15:07.782                             : en:00:15:07.782
00:49:26.672                             : en:00:49:26.672
01:07:06.105                             : en:01:07:06.105




                                                                                                                                                                                                        


b31b7f30dc17857f628264fffd0c36bc.zip (40.06 KB, 下载次数: 0)

回复

使用道具 举报

小黑屋|百度云资源论坛 |网站地图

本网站所有资源来自网络,如无意中侵犯了您的权益,请发邮件至 [email protected],立即清除相关链接

GMT+8, 2020-10-28 02:00 , Processed in 0.121008 second(s), 23 queries .

Powered by Discuz! X3.2

© 2001-2013 Comsenz Inc.

快速回复 返回顶部 返回列表