百度云资源论坛

 找回密码
 立即注册
搜索

续命之徒:绝命毒师电影 El.Camino.A.Breaking.Bad.Movie.2019.1080p.Blu...

[复制链接]
百度云电影 发表于 2020-10-11 11:47:36 | 显示全部楼层 |阅读模式
帖子完整标题:续命之徒:绝命毒师电影 El.Camino.A.Breaking.Bad.Movie.2019.1080p.BluRay.x264.DTS-FGT 11.11GB




◎译  名 续命之徒:绝命毒师电影/Greenbriar/格林布莱尔/绝命毒师电影:续命之徒
◎片  名 El Camino: A Breaking Bad Movie
◎年  代 2019
◎产  地 美国
◎类  别 剧情 / 惊悚 / 犯罪
◎语  言 英语
◎上映日期 2019-10-11(美国)
◎IMDb评分  7.3/10 from 174739 users
◎片  长 122分钟
◎导  演 文斯·吉里根 Vince Gilligan
◎编  剧 文斯·吉里根 Vince Gilligan
◎主  演 亚伦·保尔 Aaron Paul
       乔纳森·班克斯 Jonathan Banks
       马特·琼斯 Matt Jones
       查尔斯·贝克 Charles Baker
       托德·特里 Todd Terry
       朱莉·珀尔 Julie Pearl
       格雷戈里·史蒂文·索里兹 Gregory Steven Soliz
       拉里·哈金 Larry Hankin
       杰西·普莱蒙 Jesse Plemons
       汤姆·鲍尔 Tom Bower
       格洛里亚·桑多瓦尔 Gloria Sandoval
       泰丝·哈珀 Tess Harper
       迈克尔·博夫舍维尔 Michael Bofshever
       丹妮尔·托德斯科 Danielle Todesco
       斯科特·麦克阿瑟 Scott MacArthur
       斯科特· 谢泼德 Scott Shepherd
       玛拉·吉布斯 Marla Gibbs
       罗伯特·福斯特 Robert Forster
       布兰登·萨克斯顿 Brendan Sexton III
       戴维·马特 David Mattey
       凯文·兰金 Kevin Rankin
       布莱恩·科兰斯顿 Bryan Cranston
       约翰尼·奥蒂斯 Johnny Ortiz
       克里斯滕·里特 Krysten Ritter
       科迪·蕾尼·卡梅伦 Cody Renee Cameron

◎标  签 绝命毒师 | 绝命毒师衍生剧 | 犯罪 | 美国 | Netflix | 剧情 | 2019 | 电影

◎简  介

  Netflix 电视内容《续命之徒:绝命毒师电影》回归,主角杰西·平克曼(艾美奖得主亚伦·保尔饰演)再次与粉丝见面。杰西戏剧性地逃出囚禁后,他必须接受自己的过去,才有可能创造未来。这部扣人心弦的惊悚片由《绝命毒师》的创剧人文斯·吉里根编写和执导。该电影由马克·约翰逊、梅利莎·伯恩斯坦、查尔斯·纽沃斯、黛安娜·默瑟和亚伦·保尔以及 Sony Pictures Television 联合制作。

◎获奖情况

  第72届黄金时段艾美奖 ?(2020)
  迷你剧/电视电影最佳电视电影(提名)
  
  第72届美国导演工会奖 ?(2020)
  最佳电视电影/限定剧导演(提名) 文斯·吉里根
  
  第72届美国编剧工会奖 ?(2020)
  电视奖最佳改编剧本-长篇剧集(提名)
  
  第31届美国制片人工会奖 ?(2020)
  最佳流媒体电影/电视电影制片人奖(提名)
  
  第56届美国声音效果协会奖 ?(2020)
  电视电影/迷你剧最佳音效(提名)
  
  第10届美国评论家选择电视奖 ?(2020)
  最佳电视电影
  电视电影/限定剧最佳男配角(提名) 杰西·普莱蒙
  
  第24届金卫星奖 ?(2020)
  电视部门迷你剧/电视电影最佳男主角(提名) 亚伦·保尔
  电视部门最佳电视电影
Video
ID                                       : 1
Format                                   : AVC
Format/Info                              : Advanced Video Code
Format settings                          : CABAC / 4 Ref Frames
Format settings, CABAC                   : Yes
Format settings, Reference frames        : 4 frames
Codec ID                                 : V_MPEG4/ISO/AVC
Duration                                 : 2 h 2 min
Bit rate                                 : 11.5 Mb/s
Width                                    : 1 920 pixels
Height                                   : 804 pixels
Display aspect ratio                     : 2.40:1
Frame rate mode                          : Constant
Frame rate                               : 23.976 (24000/1001/189150) FPS
Color space                              : YUV
Chroma subsampling                       : 4:2:0
Bit depth                                : 8 bits
Scan type                                : Progressive
Bits/(Pixel*Frame)                       : 0.311
Stream size                              : 9.82 GiB (88%)
Title                                    : El.Camino.A.Breaking.Bad.Movie.2019.1080p.BluRay.x264.DTS-FGT
Writing library                          : x264 core 148 r2795M aaa9aa8
Encoding settings                        : cabac=1 / ref=4 / deblock=1:-2:-2 / analyse=0x3:0x113 / me=umh / subme=9 / psy=1 / psy_rd=1.00:0.15 / mixed_ref=1 / me_range=16 / chroma_me=1 / trellis=2 / 8x8dct=1 / cqm=0 / deadzone=21,11 / fast_pskip=1 / chroma_qp_offset=-3 / threads=72 / lookahead_threads=3 / sliced_threads=0 / nr=0 / decimate=1 / interlaced=0 / bluray_compat=0 / constrained_intra=0 / bframes=3 / b_pyramid=2 / b_adapt=1 / b_bias=0 / direct=3 / weightb=1 / open_gop=0 / weightp=2 / keyint=250 / keyint_min=25 / scenecut=40 / intra_refresh=0 / rc_lookahead=50 / rc=2pass / mbtree=1 / bitrate=11500 / ratetol=1.0 / qcomp=0.60 / qpmin=0 / qpmax=69 / qpstep=4 / cplxblur=20.0 / qblur=0.5 / vbv_maxrate=31250 / vbv_bufsize=31250 / nal_hrd=none / filler=0 / ip_ratio=1.40 / aq=1:1.00
Language                                 : English
Default                                  : Yes
Forced                                   : No

Audio
ID                                       : 2
Format                                   : DTS
Format/Info                              : Digital Theater Systems
Codec ID                                 : A_DTS
Duration                                 : 2 h 2 min
Bit rate mode                            : Constant
Bit rate                                 : 1 509 kb/s
Channel(s)                               : 6 channels
Channel layout                           : C L R Ls Rs LFE
Sampling rate                            : 48.0 kHz
Frame rate                               : 93.750 FPS (512 SPF)
Bit depth                                : 16 bits
Compression mode                         : Lossy
Stream size                              : 1.29 GiB (12%)
Title                                    : El.Camino.A.Breaking.Bad.Movie.2019.1080p.BluRay.x264.DTS-FGT
Language                                 : English
Default                                  : Yes
Forced                                   : No

Text
ID                                       : 3
Format                                   : UTF-8
Codec ID                                 : S_TEXT/UTF8
Codec ID/Info                            : UTF-8 Plain Text
Duration                                 : 1 h 54 min
Bit rate                                 : 41 b/s
Count of elements                        : 1103
Stream size                              : 34.9 KiB (0%)
Language                                 : English
Default                                  : Yes
Forced                                   : No

Menu
00:00:00.000                             : en:Chapter 1
00:06:23.883                             : en:Chapter 2
00:16:44.670                             : en:Chapter 3
00:24:53.033                             : en:Chapter 4
00:37:45.263                             : en:Chapter 5
00:42:40.600                             : en:Chapter 6
00:49:08.237                             : en:Chapter 7
01:04:59.813                             : en:Chapter 8
01:07:57.532                             : en:Chapter 9
01:16:14.528                             : en:Chapter 10
01:19:30.849                             : en:Chapter 11
01:23:06.148                             : en:Chapter 12
01:28:00.484                             : en:Chapter 13
01:33:31.606                             : en:Chapter 14
01:42:17.089                             : en:Chapter 15
01:49:46.955                             : en:Chapter 16
01:57:54.901                             : en:Chapter 17




                                                                                                                                                                                                        
                                                                                                                                                                                                                                          
0609397c37071574e02545e20b94e213.zip (57.03 KB, 下载次数: 0)

回复

使用道具 举报

小黑屋|百度云资源论坛 |网站地图

本网站所有资源来自网络,如无意中侵犯了您的权益,请发邮件至 [email protected],立即清除相关链接

GMT+8, 2020-10-28 01:16 , Processed in 0.112787 second(s), 23 queries .

Powered by Discuz! X3.2

© 2001-2013 Comsenz Inc.

快速回复 返回顶部 返回列表