百度云资源论坛

 找回密码
 立即注册
搜索

黑手党只在夏天杀人 The.Mafia.Kills.Only.in.Summer.2013.720p.BluRay.x...

[复制链接]
百度云电影 发表于 2020-10-11 11:16:41 | 显示全部楼层 |阅读模式
帖子完整标题:黑手党只在夏天杀人 The.Mafia.Kills.Only.in.Summer.2013.720p.BluRay.x264-USURY 4.00GB




◎译  名 黑手党只在夏天杀人/The Mafia Only Kills In Summer/夏日杀戒
◎片  名 La Mafia Uccide Solo d'Estate
◎年  代 2013
◎产  地 意大利
◎类  别 喜剧 / 爱情 / 犯罪
◎语  言 意大利语
◎上映日期 2013-11-28
◎IMDb评分  7.1/10 from 7390 users
◎片  长 90分钟
◎导  演 皮弗 Pif
◎编  剧 Michele Astori / 马尔科·马塔尼 Marco Martani
◎主  演 克里斯蒂安娜·卡波通蒂 Cristiana Capotondi
       Claudio Gioè
       Maurizio Marchetti
       塞尔吉奥·文斯佩尔迪诺 Sergio Vespertino
       Maurizio Bologna

◎标  签 意大利 | 喜剧 | 黑色 | 犯罪 | 爱情 | 2013 | 意大利电影 | 剧情

◎简  介

  由真实事件改编,影片讲述了70-90年代这20年中西西里的黑帮发展史,电影以黑色喜剧的口吻嘲讽着黑帮大佬们,并凸显反黑英雄们的光辉事迹。全片的主线以阿图罗,一个在巴勒莫长大的男孩,要赢得心爱女孩弗洛拉的芳心而展开。
  
  看海报便知,影片虽然讲述的是黑手党,但风格却是无比的清新可爱。少年的成长与黑帮的演变同时进行,阿图罗的生活深受黑手党和时局的变化所影响,但通过孩子的双眼,一切都变得饶有趣味而又不乏深思。
  
  影片曾获大卫奖最佳新人导演奖,以及欧洲电影奖最佳喜剧片提名。

◎获奖情况

  第27届欧洲电影奖 ?(2014)
  最佳喜剧片 皮弗
Video
ID                                       : 1
Format                                   : AVC
Format/Info                              : Advanced Video Codec
Format settings                          : CABAC / 9 Ref Frames
Format settings, CABAC                   : Yes
Format settings, Reference frames        : 9 frames
Codec ID                                 : V_MPEG4/ISO/AVC
Duration                                 : 1 h 29 min
Bit rate                                 : 5 743 kb/s
Width                                    : 1 280 pixels
Height                                   : 692 pixels
Display aspect ratio                     : 1.85:1
Frame rate mode                          : Constant
Frame rate                               : 23.976 (24000/1001/189150) FPS
Color space                              : YUV
Chroma subsampling                       : 4:2:0
Bit depth                                : 8 bits
Scan type                                : Progressive
Bits/(Pixel*Frame)                       : 0.270
Stream size                              : 3.58 GiB (90%)
Writing library                          : x264 core 161 r3018 db0d417
Encoding settings                        : cabac=1 / ref=9 / deblock=1:-3:-3 / analyse=0x3:0x133 / me=umh / subme=10 / psy=1 / psy_rd=1.00:0.15 / mixed_ref=1 / me_range=24 / chroma_me=1 / trellis=2 / 8x8dct=1 / cqm=0 / deadzone=21,11 / fast_pskip=1 / chroma_qp_offset=-3 / threads=18 / lookahead_threads=3 / sliced_threads=0 / nr=0 / decimate=1 / interlaced=0 / bluray_compat=0 / constrained_intra=0 / bframes=8 / b_pyramid=2 / b_adapt=2 / b_bias=0 / direct=3 / weightb=1 / open_gop=0 / weightp=2 / keyint=250 / keyint_min=23 / scenecut=40 / intra_refresh=0 / rc_lookahead=60 / rc=crf / mbtree=1 / crf=18.0 / qcomp=0.60 / qpmin=0 / qpmax=69 / qpstep=4 / ip_ratio=1.40 / aq=3:0.60
Language                                 : English
Default                                  : Yes
Forced                                   : No
Color range                              : Limited
Matrix coefficients                      : BT.709

Audio
ID                                       : 2
Format                                   : AC-3
Format/Info                              : Audio Coding 3
Commercial name                          : Dolby Digital
Codec ID                                 : A_AC3
Duration                                 : 1 h 29 min
Bit rate mode                            : Constant
Bit rate                                 : 640 kb/s
Channel(s)                               : 6 channels
Channel layout                           : L R C LFE Ls Rs
Sampling rate                            : 48.0 kHz
Frame rate                               : 31.250 FPS (1536 SPF)
Compression mode                         : Lossy
Stream size                              : 409 MiB (10%)
Language                                 : Italian
Service kind                             : Complete Main
Default                                  : Yes
Forced                                   : No

Text #1
ID                                       : 3
Format                                   : UTF-8
Codec ID                                 : S_TEXT/UTF8
Codec ID/Info                            : UTF-8 Plain Text
Duration                                 : 1 h 28 min
Bit rate                                 : 58 b/s
Count of elements                        : 1024
Stream size                              : 37.6 KiB (0%)
Title                                    : English
Language                                 : English
Default                                  : Yes
Forced                                   : Yes

Text #2
ID                                       : 4
Format                                   : PGS
Muxing mode                              : zlib
Codec ID                                 : S_HDMV/PGS
Codec ID/Info                            : Picture based subtitle format used on BDs/HD-DVDs
Duration                                 : 1 h 28 min
Bit rate                                 : 13.0 kb/s
Count of elements                        : 2048
Stream size                              : 8.21 MiB (0%)
Title                                    : English
Language                                 : English
Default                                  : No
Forced                                   : No

Text #3
ID                                       : 5
Format                                   : PGS
Muxing mode                              : zlib
Codec ID                                 : S_HDMV/PGS
Codec ID/Info                            : Picture based subtitle format used on BDs/HD-DVDs
Duration                                 : 1 h 23 min
Bit rate                                 : 13.3 kb/s
Count of elements                        : 2030
Stream size                              : 7.99 MiB (0%)
Title                                    : Italian SDH
Language                                 : Italian
Default                                  : No
Forced                                   : No

Menu
00:00:00.000                             : en:00:00:00.000
00:05:26.368                             : en:00:05:26.368
00:09:57.388                             : en:00:09:57.388
00:15:32.140                             : en:00:15:32.140
00:21:15.399                             : en:00:21:15.399
00:25:02.543                             : en:00:25:02.543
00:30:31.955                             : en:00:30:31.955
00:36:17.008                             : en:00:36:17.008
00:44:23.369                             : en:00:44:23.369
00:51:38.053                             : en:00:51:38.053
00:53:07.184                             : en:00:53:07.184
00:58:32.718                             : en:00:58:32.718
01:07:02.810                             : en:01:07:02.810
01:11:33.664                             : en:01:11:33.664
01:16:14.111                             : en:01:16:14.111
01:22:26.233                             : en:01:22:26.233




                                                                                                                                                                                                        
                                                                                                                                                                                                                                          
3099ac94154f4b1abecd9422ab6e0bff.zip (41.49 KB, 下载次数: 0)

回复

使用道具 举报

小黑屋|百度云资源论坛 |网站地图

本网站所有资源来自网络,如无意中侵犯了您的权益,请发邮件至 [email protected],立即清除相关链接

GMT+8, 2020-11-1 06:31 , Processed in 0.100212 second(s), 23 queries .

Powered by Discuz! X3.2

© 2001-2013 Comsenz Inc.

快速回复 返回顶部 返回列表