百度云资源论坛

 找回密码
 立即注册
搜索

血腥市政厅 Town.Bloody.Hall.1979.720p.BluRay.x264-BiPOLAR 6.06GB

[复制链接]
百度云资源 发表于 2020-10-11 11:16:41 | 显示全部楼层 |阅读模式
帖子完整标题:血腥市政厅 Town.Bloody.Hall.1979.720p.BluRay.x264-BiPOLAR 6.06GB




◎译  名 血腥市政厅
◎片  名 Town Bloody Hall
◎年  代 1979
◎产  地 美国
◎类  别 纪录片
◎语  言 英语
◎上映日期 1979-04-03(美国)
◎IMDb评分  7.4/10 from 151 users
◎片  长 85 分钟
◎导  演 彭尼贝克 D.A. Pennebaker / 克莉斯·埃热迪 Chris Hegedus
◎编  剧 Germaine Greer / 诺曼·梅勒 Norman Mailer / Diana Trilling
◎主  演 诺曼·梅勒 Norman Mailer
       Germaine Greer
       Diana Trilling
       苏珊·桑塔格 Susan Sontag
       Betty Friedan
       伊丽莎白·哈德威克 Elizabeth Hardwick

◎标  签 纪录片 | CC | 美国 | 没有下的CC | 好东西 | 女性 | 下午電影 | Tisch

◎简  介

  The infamously macho American author shares a 1971 New York City panel with a group of famous feminists and responds as well to a lively critique from other intellectual women in the audience, in this time capsule of what a sophisticated political and literary public discussion was like in the early days of Women's Liberation.
Video
ID                                       : 1
Format                                   : AVC
Format/Info                              : Advanced Video Codec
Format settings                          : CABAC / 12 Ref Frames
Format settings, CABAC                   : Yes
Format settings, Reference frames        : 12 frames
Codec ID                                 : V_MPEG4/ISO/AVC
Duration                                 : 1 h 25 min
Bit rate                                 : 9 386 kb/s
Width                                    : 960 pixels
Height                                   : 720 pixels
Display aspect ratio                     : 4:3
Frame rate mode                          : Constant
Frame rate                               : 23.976 (24000/1001/189150) FPS
Color space                              : YUV
Chroma subsampling                       : 4:2:0
Bit depth                                : 8 bits
Scan type                                : Progressive
Bits/(Pixel*Frame)                       : 0.566
Stream size                              : 5.62 GiB (93%)
Writing library                          : x264 core 161 r3018 db0d417
Encoding settings                        : cabac=1 / ref=12 / deblock=1:-3:-3 / analyse=0x3:0x133 / me=umh / subme=10 / psy=1 / psy_rd=1.00:0.15 / mixed_ref=1 / me_range=24 / chroma_me=1 / trellis=2 / 8x8dct=1 / cqm=0 / deadzone=21,11 / fast_pskip=1 / chroma_qp_offset=-3 / threads=18 / lookahead_threads=3 / sliced_threads=0 / nr=0 / decimate=1 / interlaced=0 / bluray_compat=0 / constrained_intra=0 / bframes=8 / b_pyramid=2 / b_adapt=2 / b_bias=0 / direct=3 / weightb=1 / open_gop=0 / weightp=2 / keyint=250 / keyint_min=23 / scenecut=40 / intra_refresh=0 / rc_lookahead=60 / rc=crf / mbtree=1 / crf=17.0 / qcomp=0.60 / qpmin=0 / qpmax=69 / qpstep=4 / ip_ratio=1.40 / aq=3:0.50
Language                                 : English
Default                                  : Yes
Forced                                   : No

Audio #1
ID                                       : 2
Format                                   : FLAC
Format/Info                              : Free Lossless Audio Codec
Codec ID                                 : A_FLAC
Duration                                 : 1 h 25 min
Bit rate mode                            : Variable
Bit rate                                 : 662 kb/s
Channel(s)                               : 1 channel
Channel layout                           : C
Sampling rate                            : 48.0 kHz
Frame rate                               : 11.719 FPS (4096 SPF)
Bit depth                                : 24 bits
Compression mode                         : Lossless
Stream size                              : 406 MiB (7%)
Title                                    : English
Writing library                          : libFLAC 1.2.1 (UTC 2007-09-17)
Language                                 : English
Default                                  : Yes
Forced                                   : No

Audio #2
ID                                       : 3
Format                                   : AAC LC
Format/Info                              : Advanced Audio Codec Low Complexity
Codec ID                                 : A_AAC-2
Duration                                 : 1 h 25 min
Bit rate                                 : 62.7 kb/s
Channel(s)                               : 1 channel
Channel layout                           : C
Sampling rate                            : 48.0 kHz
Frame rate                               : 46.875 FPS (1024 SPF)
Compression mode                         : Lossy
Delay relative to video                  : 9 ms
Stream size                              : 38.4 MiB (1%)
Title                                    : English Commentary by Chris Hegedus and Germaine Greer
Language                                 : English
Default                                  : No
Forced                                   : No

Text #1
ID                                       : 4
Format                                   : UTF-8
Codec ID                                 : S_TEXT/UTF8
Codec ID/Info                            : UTF-8 Plain Text
Duration                                 : 1 h 23 min
Bit rate                                 : 108 b/s
Count of elements                        : 1390
Stream size                              : 66.4 KiB (0%)
Title                                    : English
Language                                 : English
Default                                  : No
Forced                                   : No

Text #2
ID                                       : 5
Format                                   : UTF-8
Codec ID                                 : S_TEXT/UTF8
Codec ID/Info                            : UTF-8 Plain Text
Duration                                 : 1 h 24 min
Bit rate                                 : 114 b/s
Count of elements                        : 1512
Stream size                              : 71.3 KiB (0%)
Title                                    : English SDH
Language                                 : English
Default                                  : No
Forced                                   : No

Text #3
ID                                       : 6
Format                                   : PGS
Muxing mode                              : zlib
Codec ID                                 : S_HDMV/PGS
Codec ID/Info                            : Picture based subtitle format used on BDs/HD-DVDs
Duration                                 : 1 h 24 min
Bit rate                                 : 15.1 kb/s
Count of elements                        : 3026
Stream size                              : 9.16 MiB (0%)
Title                                    : English SDH
Language                                 : English
Default                                  : No
Forced                                   : No

Menu
00:00:00.000                             : en:00:00:00.000
00:01:50.235                             : en:00:01:50.235
00:04:52.792                             : en:00:04:52.792
00:13:04.283                             : en:00:13:04.283
00:22:40.359                             : en:00:22:40.359
00:34:41.496                             : en:00:34:41.496
00:43:23.851                             : en:00:43:23.851
00:48:42.795                             : en:00:48:42.795
00:51:27.126                             : en:00:51:27.126
00:55:31.870                             : en:00:55:31.870
01:02:07.057                             : en:01:02:07.057
01:10:25.263                             : en:01:10:25.263
01:22:12.052                             : en:01:22:12.052






416b04dfafd10e1b623c7d4deddbbfd2.zip (31.02 KB, 下载次数: 0)

回复

使用道具 举报

小黑屋|百度云资源论坛 |网站地图

本网站所有资源来自网络,如无意中侵犯了您的权益,请发邮件至 [email protected],立即清除相关链接

GMT+8, 2020-11-1 06:56 , Processed in 0.097683 second(s), 23 queries .

Powered by Discuz! X3.2

© 2001-2013 Comsenz Inc.

快速回复 返回顶部 返回列表