百度云资源论坛

 找回密码
 立即注册
搜索

淪落人 Still.Human.2018.CHINESE.1080p.BluRay.X264-WiKi 9.60GB

[复制链接]
百度云资源 发表于 2020-10-9 10:59:13 | 显示全部楼层 |阅读模式
帖子完整标题:淪落人 Still.Human.2018.CHINESE.1080p.BluRay.X264-WiKi 9.60GB




◎译  名 沦落人/Still Human
◎片  名 淪落人
◎年  代 2018
◎产  地 中国香港
◎类  别 剧情
◎语  言 粤语
◎上映日期 2018-11-08(台北金马影展) / 2019-04-11(中国香港)
◎IMDb评分  7.6/10 from 1011 users
◎片  长 112分钟
◎导  演 陈小娟 Oliver Chan
◎编  剧 陈小娟 Oliver Chan
◎主  演 黄秋生 Anthony Wong Chau-Sang
       克里瑟尔·孔松希 Crisel Consunji
       叶童 Cecilia Yip
       李灿森 Sam Lee
       黄定谦 Himmy Wong
       黄素欢 Gobby Wong
       梁健怡 Jasmine Leung
       刘朝健 Gordon Lau
       黄翠仪 Wong Chui Yee
       陈果 Fruit Chan
       赵啟岚 Matt Chiu

◎标  签 香港 | 温情 | 人生 | 剧情 | 梦想 | 感人 | 2018 | 人性

◎简  介

  这是关于两个沦落香港的最低下层的人的故事。中年男子汉昌荣(黄秋生饰)因意外受伤瘫痪后妻离子散,他认为人生再没有值得期望的东西,而自己亦不值得拥有任何东西。年轻菲佣Evelyn(Crisel Consunji饰)因为现实的原因,成为了一个寄人篱下的工人,放弃了成为摄影师的梦想。那一个夏天,这样的两个陌生人相遇相识,感情在他们的主仆关系中发芽,然而盛放的,却是灵魂与灵魂之间的尊重和爱。他们一起经历的春夏秋冬,令他们学习到底要怎样面对人生的四季。

◎获奖情况

  第38届香港电影金像奖 ?(2019)
  最佳电影(提名) 陈小娟
  最佳导演(提名) 陈小娟
  最佳编剧(提名) 陈小娟
  最佳男主角 黄秋生
  最佳女主角(提名) 克里瑟尔·孔松希
  最佳男配角(提名) 李灿森
  最佳新演员 克里瑟尔·孔松希
  新晋导演 陈小娟
  
  第13届亚洲电影大奖 ?(2019)
  最佳新导演 陈小娟
Video
ID                                       : 1
Format                                   : AVC
Format/Info                              : Advanced Video Codec
Format settings                          : CABAC / 4 Ref Frames
Format settings, CABAC                   : Yes
Format settings, Reference frames        : 4 frames
Codec ID                                 : V_MPEG4/ISO/AVC
Duration                                 : 1 h 51 min
Bit rate                                 : 11.6 Mb/s
Width                                    : 1 920 pixels
Height                                   : 1 040 pixels
Display aspect ratio                     : 1.85:1
Frame rate mode                          : Constant
Frame rate                               : 24.000 FPS
Color space                              : YUV
Chroma subsampling                       : 4:2:0
Bit depth                                : 8 bits
Scan type                                : Progressive
Bits/(Pixel*Frame)                       : 0.243
Stream size                              : 9.10 GiB (95%)
Writing library                          : x264 core 157 r2867+103 0d6443f t_mod_Custom_2
Encoding settings                        : cabac=1 / ref=4 / deblock=1:-3:-3 / analyse=0x3:0x133 / me=umh / subme=10 / psy=1 / fade_compensate=0.00 / psy_rd=1.00:0.00 / mixed_ref=1 / me_range=48 / chroma_me=1 / trellis=2 / 8x8dct=1 / cqm=0 / deadzone=21,11 / fast_pskip=0 / chroma_qp_offset=-2 / threads=24 / lookahead_threads=4 / sliced_threads=0 / nr=0 / decimate=0 / interlaced=0 / bluray_compat=0 / constrained_intra=0 / fgo=0 / bframes=7 / b_pyramid=2 / b_adapt=2 / b_bias=0 / direct=3 / weightb=1 / open_gop=0 / weightp=2 / keyint=250 / keyint_min=24 / scenecut=40 / intra_refresh=0 / rc_lookahead=60 / rc=crf / mbtree=0 / crf=16.0000 / qcomp=0.65 / qpmin=0:0:0 / qpmax=69:69:69 / qpstep=4 / vbv_maxrate=62500 / vbv_bufsize=78125 / crf_max=0.0 / nal_hrd=none / filler=0 / ip_ratio=1.20 / pb_ratio=1.20 / aq=3:0.85 / aq-sensitivity=10.00 / aq-factor=1.00:1.00:1.00 / aq2=0 / aq3=0 / zones=5667,5949,crf=14/32344,33618,crf=14/61262,61631,crf=14/64534,65750,crf=14/65164,65582,crf=14/66512,66843,crf=14/68855,69309,crf=14/71596,71672,crf=14/71848,72073,crf=14/72505,72654,crf=14/80769,80849,crf=14/80887,81008,crf=14/81081,81262,crf=14/86242,87352,crf=15/100540,100619,crf=14/135243,137112,crf=15/138993,141012,crf=15/145139,145507,crf=14/151459,151868,crf=14/156740,161131,b=0.5
Language                                 : English
Default                                  : Yes
Forced                                   : No

Audio
ID                                       : 2
Format                                   : AC-3
Format/Info                              : Audio Coding 3
Commercial name                          : Dolby Digital
Codec ID                                 : A_AC3
Duration                                 : 1 h 51 min
Bit rate mode                            : Constant
Bit rate                                 : 640 kb/s
Channel(s)                               : 6 channels
Channel layout                           : L R C LFE Ls Rs
Sampling rate                            : 48.0 kHz
Frame rate                               : 31.250 FPS (1536 SPF)
Bit depth                                : 16 bits
Compression mode                         : Lossy
Stream size                              : 512 MiB (5%)
Language                                 : Chinese
Service kind                             : Complete Main
Default                                  : Yes
Forced                                   : No

Text #1
ID                                       : 3
Format                                   : UTF-8
Codec ID                                 : S_TEXT/UTF8
Codec ID/Info                            : UTF-8 Plain Text
Duration                                 : 1 h 45 min
Bit rate                                 : 41 b/s
Count of elements                        : 1230
Stream size                              : 32.4 KiB (0%)
Language                                 : English
Default                                  : Yes
Forced                                   : No

Text #2
ID                                       : 4
Format                                   : UTF-8
Codec ID                                 : S_TEXT/UTF8
Codec ID/Info                            : UTF-8 Plain Text
Duration                                 : 1 h 44 min
Bit rate                                 : 38 b/s
Count of elements                        : 1241
Stream size                              : 29.6 KiB (0%)
Title                                    : CHS
Language                                 : Chinese
Default                                  : No
Forced                                   : No

Text #3
ID                                       : 5
Format                                   : UTF-8
Codec ID                                 : S_TEXT/UTF8
Codec ID/Info                            : UTF-8 Plain Text
Duration                                 : 1 h 44 min
Bit rate                                 : 38 b/s
Count of elements                        : 1241
Stream size                              : 29.6 KiB (0%)
Title                                    : CHT
Language                                 : Chinese
Default                                  : No
Forced                                   : No

Menu
00:00:00.000                             : en:00:00:00.000
00:05:34.833                             : en:00:05:34.833
00:09:23.167                             : en:00:09:23.167
00:15:54.500                             : en:00:15:54.500
00:20:04.375                             : en:00:20:04.375
00:25:01.625                             : en:00:25:01.625
00:32:30.208                             : en:00:32:30.208
00:38:40.000                             : en:00:38:40.000
00:43:36.917                             : en:00:43:36.917
00:48:17.167                             : en:00:48:17.167
00:54:52.500                             : en:00:54:52.500
00:58:32.875                             : en:00:58:32.875
01:03:50.333                             : en:01:03:50.333
01:09:50.000                             : en:01:09:50.000
01:14:01.583                             : en:01:14:01.583
01:19:46.708                             : en:01:19:46.708
01:24:43.750                             : en:01:24:43.750
01:30:01.292                             : en:01:30:01.292
01:39:51.750                             : en:01:39:51.750
01:48:53.917                             : en:01:48:53.917




                                                                                                                                                                                                        


969c23dcab14914fdd8ce8bf319ffce7.zip (49.47 KB, 下载次数: 0)

回复

使用道具 举报

小黑屋|百度云资源论坛 |网站地图

本网站所有资源来自网络,如无意中侵犯了您的权益,请发邮件至 [email protected],立即清除相关链接

GMT+8, 2020-10-25 22:34 , Processed in 0.101741 second(s), 23 queries .

Powered by Discuz! X3.2

© 2001-2013 Comsenz Inc.

快速回复 返回顶部 返回列表