百度云资源论坛

 找回密码
 立即注册
搜索

[BD-4K] 开造 The.Binge.2020.2160p.HULU.WEBRip.x265.10bit.SDR.DDP5.1-playWEB 10.07GB

[复制链接]
百度云资源 发表于 2020-10-8 20:12:48 | 显示全部楼层 |阅读模式
帖子完整标题:开造 The.Binge.2020.2160p.HULU.WEBRip.x265.10bit.SDR.DDP5.1-playWEB 10.07GB




◎译  名 开造
◎片  名 The Binge
◎年  代 2020
◎产  地 美国
◎类  别 喜剧
◎语  言 英语
◎上映日期 2020-08-28(美国)
◎IMDb评分  5/10 from 1958 users
◎导  演 杰里米·加尔利 Jeremy Garelick
◎编  剧 乔丹·凡迪那 Jordan VanDina
◎主  演 文斯·沃恩 Vince Vaughn
       斯凯勒·吉桑多 Skyler Gisondo
       德克斯特·达登 Dexter Darden
       爱德华多·弗兰科 Eduardo Franco
       格瑞思·范·迪恩 Grace Van Dien
       埃斯特班·贝尼托 Esteban Benito
       Natalie Paige Bentley
       乔丹·凡迪那 Jordan VanDina

◎标  签 美国 | 喜剧 | [歐美]

◎简  介

  故事设定在酒精和毒品皆违法的时代,The Binge Day是所有人都能彻底放松的特赦日。
Video
ID                                       : 1
Format                                   : HEVC
Format/Info                              : High Efficiency Video Coding
Codec ID                                 : V_MPEGH/ISO/HEVC
Duration                                 : 1 h 38 min
Bit rate                                 : 14.4 Mb/s
Width                                    : 3 840 pixels
Height                                   : 2 160 pixels
Display aspect ratio                     : 16:9
Frame rate mode                          : Constant
Frame rate                               : 24.000 FPS
Color space                              : YUV
Chroma subsampling                       : 4:2:0
Bit depth                                : 10 bits
Bits/(Pixel*Frame)                       : 0.073
Stream size                              : 9.89 GiB (98%)
Default                                  : Yes
Forced                                   : No

Audio
ID                                       : 2
Format                                   : E-AC-3
Format/Info                              : Enhanced AC-3
Commercial name                          : Dolby Digital Plus
Codec ID                                 : A_EAC3
Duration                                 : 1 h 38 min
Bit rate mode                            : Constant
Bit rate                                 : 256 kb/s
Channel(s)                               : 6 channels
Channel layout                           : L R C LFE Ls Rs
Sampling rate                            : 48.0 kHz
Frame rate                               : 31.250 FPS (1536 SPF)
Compression mode                         : Lossy
Stream size                              : 179 MiB (2%)
Language                                 : English
Service kind                             : Complete Main
Default                                  : Yes
Forced                                   : No

Text #1
ID                                       : 3
Format                                   : UTF-8
Codec ID                                 : S_TEXT/UTF8
Codec ID/Info                            : UTF-8 Plain Text
Duration                                 : 1 h 37 min
Bit rate                                 : 134 b/s
Count of elements                        : 2543
Stream size                              : 96.3 KiB (0%)
Language                                 : English
Default                                  : No
Forced                                   : No

Text #2
ID                                       : 4
Format                                   : UTF-8
Codec ID                                 : S_TEXT/UTF8
Codec ID/Info                            : UTF-8 Plain Text
Duration                                 : 1 h 37 min
Bit rate                                 : 134 b/s
Count of elements                        : 2515
Stream size                              : 96.2 KiB (0%)
Language                                 : Spanish
Default                                  : No
Forced                                   : No







9ab8b58f0d499044e37101d1bbb6f971.zip (51.82 KB, 下载次数: 0)

回复

使用道具 举报

小黑屋|百度云资源论坛 |网站地图

本网站所有资源来自网络,如无意中侵犯了您的权益,请发邮件至 [email protected],立即清除相关链接

GMT+8, 2020-10-23 01:27 , Processed in 0.120693 second(s), 23 queries .

Powered by Discuz! X3.2

© 2001-2013 Comsenz Inc.

快速回复 返回顶部 返回列表