百度云资源论坛

 找回密码
 立即注册
搜索

[BD-4K] 斯巴达300勇士/300壮士:斯巴达的逆袭 300.2006.2160p.BluRay.x264.8b...

[复制链接]
百度云资源 发表于 2020-10-5 21:57:06 | 显示全部楼层 |阅读模式
帖子完整标题:斯巴达300勇士/300壮士:斯巴达的逆袭 300.2006.2160p.BluRay.x264.8bit.SDR.DTS-HD.MA.TrueHD.7.1.Atmos-SWTYBLZ 50.23GB




◎译  名 斯巴达300勇士/300壮士:斯巴达的逆袭(台)/300斯巴达勇士/三百勇士/战狼300(港)
◎片  名 300
◎年  代 2006
◎产  地 美国
◎类  别 动作 / 历史 / 战争
◎语  言 英语
◎上映日期 2006-12-09(BNAT电影节) / 2007-03-09(美国)
◎IMDb评分  7.6/10 from 724087 users
◎片  长 117分钟
◎导  演 扎克·施奈德 Zack Snyder
◎编  剧 扎克·施奈德 Zack Snyder / 库尔特·约恩斯塔德 Kurt Johnstad / 迈克尔·高顿 Michael Gordon / 弗兰克·米勒 Frank Miller
◎主  演 杰拉德·巴特勒 Gerard Butler
       琳娜·海蒂 Lena Headey
       多米尼克·韦斯特 Dominic West
       大卫·文翰 David Wenham
       文森特·里根 Vincent Regan
       迈克尔·法斯宾德 Michael Fassbender
       汤姆·威斯多姆 Tom Wisdom
       安德鲁·普利文 Andrew Pleavin
       安德鲁·蒂曼 Andrew Tiernan
       罗德里戈·桑托罗 Rodrigo Santoro
       凯利·克雷格 Kelly Craig
       泰勒·内策尔 Tyler Neitzel
       提姆·康纳利 Tim Connolly
       玛丽·朱莉叶·里夫斯特 Marie-Julie Rivest
       彼得·门萨 Peter Mensah
       亚瑟·霍尔顿 Arthur Holden
       丹尼斯·圣约翰 Dennis St John
       尼尔·纳皮尔 Neil Napier
       戴兰·史密斯 Dylan Smith
       毛里齐奥·泰拉扎诺 Maurizio Terrazzano
       夸西·宋桂 Kwasi Songui
       安德鲁·舍夫 Andrew Shaver
       罗宾·威尔科克 Robin Wilcock
       蒂龙·本斯金 Tyrone Benskin
       罗伯特·梅耶 Robert Maillet
       帕特里克·萨邦圭 Patrick Sabongui
       加里·A·赫克 Gary A. Hecker
       达伦·萨赫拉维 Darren Shahlavi
       马克·托蒂尔 Marc Trottier
       阿格涅丝卡·乌诺洛斯卡 Agnieshka Wnorowska
       Alex Ivanovici
       迈克尔·西奈尔尼科夫 Michael Sinelnikoff
       Amélie Sorel
       Atif Y. Siddiqi
       史蒂芬·麦克哈蒂 Stephen McHattie
       Elisabeth Etienne

◎标  签 战争 | 史诗 | 美国 | 动作 | 历史 | 暴力 | 经典 | 暴力美学

◎简  介

  这部电影描述了人类史上最残酷的战争之一:温泉关之战。公元前480年,波斯国王薛西斯一世(罗德里格?桑托罗 Rodrigo Santoro 饰)亲率30万大军征战希腊。希腊各个城邦迅速派出军队结成了联军,准备抵御波斯军队的入侵。
  
  防线的最前线设在希腊的温泉关,此处由斯巴达 城的国王列奥尼达(杰拉德?巴特勒 Gerard Butler 饰)率领本城300精兵和联军4000余人镇守。由于叛徒的出卖,希腊军队被波斯军队抄到了身后形成围剿之势。列奥尼达为了保存联军实力,让联军首先撤退,自己率领300精兵死守温泉关断后。
  
  数以十万波斯大军浩浩汤汤蜂拥而至,自知必死的斯巴达士兵反而士气高涨,在战斗中爆发出惊人的战力。整个战争整整持续了2天,最后列奥尼达和他的300精兵全部阵亡,而波斯军队则损失了20000多士兵,薛西斯一世的两个兄弟也在此役中战死……

◎获奖情况

  第16届MTV电影奖 ?(2007)
  MTV电影奖年度电影(提名)
  MTV电影奖最佳表演(提名) 杰拉德·巴特勒
  MTV电影奖突破表演奖(提名) 琳娜·海蒂
  MTV电影奖最佳打斗 杰拉德·巴特勒
  MTV电影奖最佳反派(提名) 罗德里戈·桑托罗
Video
ID                                       : 1
Format                                   : AVC
Format/Info                              : Advanced Video Codec
Format settings                          : CABAC / 5 Ref Frames
Format settings, CABAC                   : Yes
Format settings, Reference frames        : 5 frames
Codec ID                                 : V_MPEG4/ISO/AVC
Duration                                 : 1 h 56 min
Bit rate                                 : 53.1 Mb/s
Width                                    : 3 840 pixels
Height                                   : 1 600 pixels
Display aspect ratio                     : 2.40:1
Frame rate mode                          : Constant
Frame rate                               : 23.976 (24000/1001/189150) FPS
Color space                              : YUV
Chroma subsampling                       : 4:2:0
Bit depth                                : 8 bits
Scan type                                : Progressive
Bits/(Pixel*Frame)                       : 0.360
Stream size                              : 43.3 GiB (87%)
Title                                    : 300.2006.2160p.BluRay.x264.8bit.SDR.DTS-HD.MA.TrueHD.7.1.Atmos-SWTYBLZ
Writing library                          : x264 core 157 r2935 545de2f
Encoding settings                        : cabac=1 / ref=5 / deblock=1:-1:-1 / analyse=0x3:0x113 / me=umh / subme=10 / psy=1 / psy_rd=1.00:0.15 / mixed_ref=1 / me_range=48 / chroma_me=1 / trellis=2 / 8x8dct=1 / cqm=0 / deadzone=21,11 / fast_pskip=1 / chroma_qp_offset=-3 / threads=48 / lookahead_threads=4 / sliced_threads=0 / nr=0 / decimate=0 / interlaced=0 / bluray_compat=0 / constrained_intra=0 / bframes=3 / b_pyramid=2 / b_adapt=2 / b_bias=0 / direct=3 / weightb=1 / open_gop=0 / weightp=2 / keyint=250 / keyint_min=23 / scenecut=40 / intra_refresh=0 / rc_lookahead=50 / rc=crf / mbtree=1 / crf=20.0 / qcomp=0.60 / qpmin=0 / qpmax=69 / qpstep=4 / ip_ratio=1.40 / aq=1:1.00
Default                                  : Yes
Forced                                   : No

Audio #1
ID                                       : 2
Format                                   : MLP FBA 16-ch
Format/Info                              : Meridian Lossless Packing FBA with 16-channel presentation
Commercial name                          : Dolby TrueHD with Dolby Atmos
Codec ID                                 : A_TRUEHD
Duration                                 : 1 h 56 min
Bit rate mode                            : Variable
Bit rate                                 : 3 343 kb/s
Maximum bit rate                         : 5 451 kb/s
Channel(s)                               : 8 channels
Channel layout                           : L R C LFE Ls Rs Lb Rb
Sampling rate                            : 48.0 kHz
Frame rate                               : 1 200.000 FPS (40 SPF)
Compression mode                         : Lossless
Stream size                              : 2.72 GiB (5%)
Title                                    : 300.2006.2160p.BluRay.x264.8bit.SDR.DTS-HD.MA.TrueHD.7.1.Atmos-SWTYBLZ
Language                                 : English
Default                                  : Yes
Forced                                   : No
Number of dynamic objects                : 11
Bed channel count                        : 1 channel
Bed channel configuration                : LFE

Audio #2
ID                                       : 3
Format                                   : DTS XLL
Format/Info                              : Digital Theater Systems
Commercial name                          : DTS-HD Master Audio
Codec ID                                 : A_DTS
Duration                                 : 1 h 56 min
Bit rate mode                            : Variable
Bit rate                                 : 3 932 kb/s
Channel(s)                               : 8 channels
Channel layout                           : C L R LFE Lb Rb Lss Rss
Sampling rate                            : 48.0 kHz
Frame rate                               : 93.750 FPS (512 SPF)
Bit depth                                : 24 bits
Compression mode                         : Lossless
Stream size                              : 3.20 GiB (6%)
Title                                    : 300.2006.2160p.BluRay.x264.8bit.SDR.DTS-HD.MA.TrueHD.7.1.Atmos-SWTYBLZ
Language                                 : English
Default                                  : No
Forced                                   : No

Audio #3
ID                                       : 4
Format                                   : AC-3
Format/Info                              : Audio Coding 3
Commercial name                          : Dolby Digital
Codec ID                                 : A_AC3
Duration                                 : 1 h 56 min
Bit rate mode                            : Constant
Bit rate                                 : 448 kb/s
Channel(s)                               : 6 channels
Channel layout                           : L R C LFE Ls Rs
Sampling rate                            : 48.0 kHz
Frame rate                               : 31.250 FPS (1536 SPF)
Compression mode                         : Lossy
Stream size                              : 374 MiB (1%)
Title                                    : 300.2006.2160p.BluRay.x264.8bit.SDR.DTS-HD.MA.TrueHD.7.1.Atmos-SWTYBLZ
Language                                 : English
Service kind                             : Complete Main
Default                                  : No
Forced                                   : No

Text #1
ID                                       : 5
Format                                   : UTF-8
Codec ID                                 : S_TEXT/UTF8
Codec ID/Info                            : UTF-8 Plain Text
Duration                                 : 1 h 47 min
Bit rate                                 : 39 b/s
Count of elements                        : 952
Stream size                              : 31.1 KiB (0%)
Title                                    : English-SRT
Language                                 : English
Default                                  : Yes
Forced                                   : No

Text #2
ID                                       : 6
Format                                   : PGS
Muxing mode                              : zlib
Codec ID                                 : S_HDMV/PGS
Codec ID/Info                            : Picture based subtitle format used on BDs/HD-DVDs
Duration                                 : 1 h 55 min
Bit rate                                 : 20.5 kb/s
Count of elements                        : 1914
Stream size                              : 16.9 MiB (0%)
Title                                    : English-PGS
Language                                 : English
Default                                  : No
Forced                                   : No

Text #3
ID                                       : 7
Format                                   : PGS
Muxing mode                              : zlib
Codec ID                                 : S_HDMV/PGS
Codec ID/Info                            : Picture based subtitle format used on BDs/HD-DVDs
Duration                                 : 1 h 48 min
Bit rate                                 : 24.5 kb/s
Count of elements                        : 2106
Stream size                              : 19.0 MiB (0%)
Title                                    : English-SDH-PGS
Language                                 : English
Default                                  : No
Forced                                   : No

Text #4
ID                                       : 8
Format                                   : PGS
Muxing mode                              : zlib
Codec ID                                 : S_HDMV/PGS
Codec ID/Info                            : Picture based subtitle format used on BDs/HD-DVDs
Duration                                 : 1 h 55 min
Bit rate                                 : 10.7 kb/s
Count of elements                        : 1652
Stream size                              : 8.85 MiB (0%)
Title                                    : Arabic-PGS
Language                                 : Arabic
Default                                  : No
Forced                                   : No

Text #5
ID                                       : 9
Format                                   : PGS
Muxing mode                              : zlib
Codec ID                                 : S_HDMV/PGS
Codec ID/Info                            : Picture based subtitle format used on BDs/HD-DVDs
Duration                                 : 1 h 55 min
Bit rate                                 : 21.3 kb/s
Count of elements                        : 1916
Stream size                              : 17.6 MiB (0%)
Title                                    : Bulgarian-PGS
Language                                 : Bulgarian
Default                                  : No
Forced                                   : No


Text #38
ID                                       : 42
Format                                   : PGS
Muxing mode                              : zlib
Codec ID                                 : S_HDMV/PGS
Codec ID/Info                            : Picture based subtitle format used on BDs/HD-DVDs
Duration                                 : 1 h 47 min
Bit rate                                 : 22.6 kb/s
Count of elements                        : 1908
Stream size                              : 17.4 MiB (0%)
Title                                    : Thai-PGS
Language                                 : Thai
Default                                  : No
Forced                                   : No

Text #39
ID                                       : 43
Format                                   : PGS
Muxing mode                              : zlib
Codec ID                                 : S_HDMV/PGS
Codec ID/Info                            : Picture based subtitle format used on BDs/HD-DVDs
Duration                                 : 1 h 55 min
Bit rate                                 : 22.3 kb/s
Count of elements                        : 1920
Stream size                              : 18.4 MiB (0%)
Title                                    : Turkish-PGS
Language                                 : Turkish
Default                                  : No
Forced                                   : No

Text #40
ID                                       : 44
Format                                   : PGS
Muxing mode                              : zlib
Codec ID                                 : S_HDMV/PGS
Codec ID/Info                            : Picture based subtitle format used on BDs/HD-DVDs
Duration                                 : 1 h 55 min
Bit rate                                 : 20.7 kb/s
Count of elements                        : 1930
Stream size                              : 17.1 MiB (0%)
Title                                    : Ukrainian-PGS
Language                                 : Ukrainian
Default                                  : No
Forced                                   : No

Menu
00:00:00.000                             : en:Spartan Education
00:05:16.608                             : en:Messenger From Persia
00:10:22.956                             : en:Sparta\'s Reply
00:13:16.421                             : en:The Ephors
00:16:51.844                             : en:The Oracle
00:19:44.016                             : en:What Should A Free Man Do?
00:22:27.972                             : en:With Or On Your Shield
00:27:03.288                             : en:More Soldiers Than You
00:29:15.921                             : en:Hunters Of Men\'s Souls
00:33:17.495                             : en:Glorious Rain
00:35:06.438                             : en:Fraction Of The Monster
00:37:49.100                             : en:Wall Of The Dead
00:40:45.943                             : en:Ephialtes\' Request
00:44:09.981                             : en:Hot Gates Battle
00:49:16.871                             : en:Today No Spartan Dies
00:52:45.996                             : en:Make Theron Your Ally
00:55:33.247                             : en:Meeting Xerxes
01:01:40.530                             : en:Immortals Put To The Test
01:05:20.416                             : en:über Immortal\'s Fall
01:08:42.618                             : en:Numbers Count For Nothing
01:12:42.858                             : en:Blood-Drunk
01:15:50.045                             : en:Betrayer\'s Bargain
01:18:38.047                             : enueen\'s Bargain
01:22:20.602                             : enrepare For Glory
01:26:43.198                             : en:Tell Them Our Story
01:29:11.179                             : en:Trickster In True Form
01:33:58.883                             : en:Victory In Surrender
01:38:54.262                             : en:Fallen Heroes
01:43:25.866                             : en:Go Tell The Spartans
01:49:03.203                             : en:End Credits






869e0d27c10a172f2c988c43367df9c0.zip (127.1 KB, 下载次数: 0)

回复

使用道具 举报

小黑屋|百度云资源论坛 |网站地图

本网站所有资源来自网络,如无意中侵犯了您的权益,请发邮件至 [email protected],立即清除相关链接

GMT+8, 2020-10-23 05:02 , Processed in 0.104322 second(s), 23 queries .

Powered by Discuz! X3.2

© 2001-2013 Comsenz Inc.

快速回复 返回顶部 返回列表