百度云资源论坛

 找回密码
 立即注册
搜索

[BD-4K] 爆裂鼓手 Whiplash.2014.2160p.BluRay.x265.10bit.SDR.DTS-HD.MA.TrueHD.7.1.A...

[复制链接]
百度云资源 发表于 2020-9-24 13:35:06 | 显示全部楼层 |阅读模式
帖子完整标题:爆裂鼓手 Whiplash.2014.2160p.BluRay.x265.10bit.SDR.DTS-HD.MA.TrueHD.7.1.Atmos-SWTYBLZ 25.93GB




◎译  名 爆裂鼓手/The Whiplash Drummer/进击的鼓手(台)/鞭打/鼓动人生(台)/鼓动真我(港)
◎片  名 Whiplash
◎年  代 2014
◎产  地 美国
◎类  别 剧情 / 音乐
◎语  言 英语
◎上映日期 2014-01-16(圣丹斯电影节) / 2014-10-10(美国)
◎IMDb评分  8.5/10 from 693497 users
◎片  长 107分钟
◎导  演 达米恩·查泽雷 Damien Chazelle
◎编  剧 达米恩·查泽雷 Damien Chazelle
◎主  演 迈尔斯·特勒 Miles Teller
       J·K·西蒙斯 J.K. Simmons
       保罗·雷瑟 Paul Reiser
       梅莉莎·班诺伊 Melissa Benoist
       奥斯汀·斯托维尔 Austin Stowell
       内特·朗 Nate Lang
       克里斯·马尔基 Chris Mulkey
       达蒙·冈普顿 Damon Gupton
       Suanne Spoke
       马科斯·卡锡 Max Kasch
       Charlie Ian
       杰森·布莱尔 Jayson Blair
       科菲·斯里博伊 Kofi Siriboe
       卡维塔帕蒂尔 Kavita Patil
       C.J. Vana
       塔里克·洛维 Tarik Lowe
       卡尔文·C·温布什 Calvin C. Winbush
       迈克尔·D·科恩 Michael D. Cohen
       艾普尔·格雷斯 April Grace
       马库斯·亨德森 Marcus Henderson
       亨利·G.桑德斯 Henry G. Sanders
       温迪·李 Wendee Lee
       米歇尔·拉夫 Michelle Ruff

◎标  签 音乐 | 励志 | 美国 | 梦想 | 成长 | 爵士 | 剧情 | 人性

◎简  介

  19岁少年安德鲁(迈尔斯·特勒 Miles Teller 饰)成长在单亲家庭,一心想成为顶级爵士乐鼓手。某晚他在学校练习时被魔鬼导师弗莱彻(J·K·西蒙斯 J.K. Simmons 饰)相中,进入正规乐队,同时也开始为追求完美付出代价。安德鲁越是刻苦练习,与外部世界越是隔膜。唯一理解他的是弗莱彻,但后者的暴躁与喜怒无常扭曲了这段师生关系,更让安德鲁耳濡目染,连带自身的性格亦发生变化。最后当安德鲁终于登上纽约音乐厅的舞台,他才惊恐的发现原来弗莱彻一直等着将他打入尘埃......
  
  《爆裂鼓手》讲述一名少年在严师督教下,以非常规手段挑战自己的极限、追逐爵士乐鼓手梦的热血故事。主人公热爱打鼓,但过度的投入让他失去对音乐的初衷,进而演变为生命的负荷以及师徒间近乎疯魔的对决。电影不只有音乐人的苦痛,更让人看到传统励志背后的残酷真相。 《爆裂鼓手》获得第30届圣丹斯电影节最高荣誉评审团奖。

◎获奖情况

  第87届奥斯卡金像奖 ?(2015)
  最佳影片(提名) 杰森·布伦?/?戴维·兰开斯特?/?海伦·埃斯特布鲁克
  最佳男配角 J·K·西蒙斯
  最佳改编剧本(提名) 达米恩·查泽雷
  最佳剪辑 汤姆·克罗斯
  最佳混音 克雷格·曼恩?/?本·威尔金斯?/?托马斯·柯利
  
  第72届金球奖 ?(2015)
  电影类最佳男配角 J·K·西蒙斯
  
  第39届日本电影学院奖 ?(2016)
  最佳外语片(提名)
  
  第30届圣丹斯电影节 ?(2014)
  评审团大奖剧情片 达米恩·查泽雷
  观众奖剧情片 达米恩·查泽雷
  
  第21届美国演员工会奖 ?(2015)
  电影奖最佳男配角 J·K·西蒙斯
  
  第67届美国编剧工会奖 ?(2015)
  电影奖最佳原创剧本(提名) 达米恩·查泽雷
  
  第80届纽约影评人协会奖 ?(2014)
  最佳男配角 J·K·西蒙斯
  
  第30届美国独立精神奖 ?(2015)
  最佳影片(提名)
  最佳导演(提名) 达米恩·查泽雷
  最佳男配角 J·K·西蒙斯
  最佳剪辑 汤姆·克罗斯
  
  第24届哥谭独立电影奖 ?(2014)
  最佳男演员(提名) 迈尔斯·特勒
  
  第15届美国电影学会奖 ?(2014)
  年度佳片
  
  第13届华盛顿影评人协会奖 ?(2014)
  最佳影片(提名)
  最佳导演(提名) 达米恩·查泽雷
  最佳男配角 J·K·西蒙斯
  最佳原创剧本(提名) 达米恩·查泽雷
  最佳剪辑(提名) 汤姆·克罗斯
  
  第35届波士顿影评人协会奖 ?(2014)
  最佳男配角 J·K·西蒙斯
  
  第40届洛杉矶影评人协会奖 ?(2014)
  最佳男配角 J·K·西蒙斯
  
  第27届芝加哥影评人协会奖 ?(2014)
  最佳影片(提名)
  最佳男配角 J·K·西蒙斯
  最佳原创剧本(提名) 达米恩·查泽雷
  最佳剪辑 汤姆·克罗斯
  最具潜力导演 达米恩·查泽雷
  
  第18届美国在线影评人协会奖 ?(2014)
  最佳影片(提名)
  最佳男配角(提名) J·K·西蒙斯
  最佳原创剧本(提名) 达米恩·查泽雷
  最佳剪辑(提名) 汤姆·克罗斯
  
  第5届豆瓣电影鑫像奖 ?(2015)
  鑫豆单元最佳影片(外语)(提名)
[quote]Video
ID                                       : 1
Format                                   : HEVC
Format/Info                              : High Efficiency Video Coding
Codec ID                                 : V_MPEGH/ISO/HEVC
Duration                                 : 1 h 46 min
Bit rate                                 : 26.2 Mb/s
Width                                    : 3 840 pixels
Height                                   : 1 600 pixels
Display aspect ratio                     : 2.40:1
Frame rate mode                          : Constant
Frame rate                               : 23.976 (24000/1001/189150) FPS
Color space                              : YUV
Chroma subsampling                       : 4:2:0
Bit depth                                : 10 bits
Bits/(Pixel*Frame)                       : 0.178
Stream size                              : 19.6 GiB (76%)
Title                                    : Whiplash.2014.2160p.BluRay.x265.10bit.SDR.DTS-HD.MA.TrueHD.7.1.Atmos-SWTYBLZ
Writing library                          : x265 3.0ed72af837053:[Windows][GCC 8.2.0][64 bit] 10bit
Encoding settings                        : cpuid=1111039 / frame-threads=6 / numa-pools=40 / wpp / no-pmode / no-pme / no-psnr / no-ssim / log-level=2 / input-csp=1 / input-res=3840x1600 / interlace=0 / total-frames=153864 / level-idc=51 / high-tier=1 / uhd-bd=0 / ref=3 / no-allow-non-conformance / repeat-headers / annexb / aud / hrd / info / hash=0 / no-temporal-layers / no-open-gop / min-keyint=1 / keyint=24 / gop-lookahead=0 / bframes=4 / b-adapt=2 / b-pyramid / bframe-bias=0 / rc-lookahead=25 / lookahead-slices=4 / scenecut=40 / radl=0 / no-splice / no-intra-refresh / ctu=64 / min-cu-size=8 / no-rect / no-amp / max-tu-size=32 / tu-inter-depth=1 / tu-intra-depth=1 / limit-tu=0 / rdoq-level=0 / dynamic-rd=0.00 / no-ssim-rd / signhide / no-tskip / nr-intra=0 / nr-inter=0 / no-constrained-intra / strong-intra-smoothing / max-merge=2 / limit-refs=3 / no-limit-modes / me=1 / subme=2 / merange=57 / temporal-mvp / weightp / no-weightb / no-analyze-src-pics / deblock=0:0 / no-sao / no-sao-non-deblock / rd=3 / no-early-skip / rskip / no-fast-intra / no-tskip-fast / no-cu-lossless / no-b-intra / no-splitrd-skip / rdpenalty=0 / psy-rd=2.00 / psy-rdoq=0.00 / no-rd-refine / no-lossless / cbqpoffs=0 / crqpoffs=0 / rc=crf / crf=16.0 / qcomp=0.60 / qpstep=4 / stats-write=0 / stats-read=0 / vbv-maxrate=160000 / vbv-bufsize=160000 / vbv-init=0.9 / crf-max=0.0 / crf-min=0.0 / ipratio=1.40 / pbratio=1.30 / aq-mode=1 / aq-strength=1.00 / cutree / zone-count=0 / no-strict-cbr / qg-size=32 / no-rc-grain / qpmax=69 / qpmin=0 / no-const-vbv / sar=1 / overscan=0 / videoformat=5 / range=0 / colorprim=2 / transfer=2 / colormatrix=2 / chromaloc=0 / display-window=0 / max-cll=0,0 / min-luma=0 / max-luma=1023 / log2-max-poc-lsb=8 / vui-timing-info / vui-hrd-info / slices=1 / opt-qp-pps / opt-ref-list-length-pps / no-multi-pass-opt-rps / scenecut-bias=0.05 / no-opt-cu-delta-qp / no-aq-motion / no-hdr / no-hdr-opt / no-dhdr10-opt / no-idr-recovery-sei / analysis-reuse-level=5 / scale-factor=0 / refine-intra=0 / refine-inter=0 / refine-mv=0 / refine-ctu-distortion=0 / no-limit-sao / ctu-info=0 / no-lowpass-dct / refine-analysis-type=0 / copy-pic=1 / max-ausize-factor=1.0 / no-dynamic-refine / no-single-sei / no-hevc-aq / qp-adaptation-range=1.00
Language                                 : English
Default                                  : Yes
Forced                                   : No

Audio #1
ID                                       : 2
Format                                   : MLP FBA 16-ch
Format/Info                              : Meridian Lossless Packing FBA with 16-channel presentation
Commercial name                          : Dolby TrueHD with Dolby Atmos
Codec ID                                 : A_TRUEHD
Duration                                 : 1 h 46 min
Bit rate mode                            : Variable
Bit rate                                 : 3 032 kb/s
Maximum bit rate                         : 5 253 kb/s
Channel(s)                               : 8 channels
Channel layout                           : L R C LFE Ls Rs Lb Rb
Sampling rate                            : 48.0 kHz
Frame rate                               : 1 200.000 FPS (40 SPF)
Compression mode                         : Lossless
Stream size                              : 2.26 GiB (9%)
Title                                    : Whiplash.2014.2160p.BluRay.x265.10bit.SDR.DTS-HD.MA.TrueHD.7.1.Atmos-SWTYBLZ
Language                                 : English
Default                                  : Yes
Forced                                   : No
Number of dynamic objects                : 11
Bed channel count                        : 1 channel
Bed channel configuration                : LFE

Audio #2
ID                                       : 3
Format                                   : DTS XLL
Format/Info                              : Digital Theater Systems
Commercial name                          : DTS-HD Master Audio
Codec ID                                 : A_DTS
Duration                                 : 1 h 46 min
Bit rate mode                            : Variable
Bit rate                                 : 4 226 kb/s
Channel(s)                               : 8 channels
Channel layout                           : C L R LFE Lb Rb Lss Rss
Sampling rate                            : 48.0 kHz
Frame rate                               : 93.750 FPS (512 SPF)
Bit depth                                : 24 bits
Compression mode                         : Lossless
Stream size                              : 3.16 GiB (12%)
Title                                    : Whiplash.2014.2160p.BluRay.x265.10bit.SDR.DTS-HD.MA.TrueHD.7.1.Atmos-SWTYBLZ
Language                                 : English
Default                                  : No
Forced                                   : No

Audio #3
ID                                       : 4
Format                                   : AC-3
Format/Info                              : Audio Coding 3
Commercial name                          : Dolby Digital
Codec ID                                 : A_AC3
Duration                                 : 1 h 46 min
Bit rate mode                            : Constant
Bit rate                                 : 640 kb/s
Channel(s)                               : 6 channels
Channel layout                           : L R C LFE Ls Rs
Sampling rate                            : 48.0 kHz
Frame rate                               : 31.250 FPS (1536 SPF)
Compression mode                         : Lossy
Stream size                              : 490 MiB (2%)
Title                                    : Whiplash.2014.2160p.BluRay.x265.10bit.SDR.DTS-HD.MA.TrueHD.7.1.Atmos-SWTYBLZ
Language                                 : English
Service kind                             : Complete Main
Default                                  : No
Forced                                   : No

Text #1
ID                                       : 5
Format                                   : UTF-8
Codec ID                                 : S_TEXT/UTF8
Codec ID/Info                            : UTF-8 Plain Text
Duration                                 : 1 h 35 min
Bit rate                                 : 44 b/s
Count of elements                        : 889
Stream size                              : 30.9 KiB (0%)
Title                                    : English-SRT
Language                                 : English
Default                                  : Yes
Forced                                   : No

Text #2
ID                                       : 6
Format                                   : PGS
Muxing mode                              : zlib
Codec ID                                 : S_HDMV/PGS
Codec ID/Info                            : Picture based subtitle format used on BDs/HD-DVDs
Duration                                 : 1 h 35 min
Bit rate                                 : 25.7 kb/s
Count of elements                        : 1794
Stream size                              : 17.5 MiB (0%)
Title                                    : English-PGS
Language                                 : English
Default                                  : No
Forced                                   : No

Text #3
ID                                       : 7
Format                                   : PGS
Muxing mode                              : zlib
Codec ID                                 : S_HDMV/PGS
Codec ID/Info                            : Picture based subtitle format used on BDs/HD-DVDs
Duration                                 : 1 h 44 min
Bit rate                                 : 26.3 kb/s
Count of elements                        : 2065
Stream size                              : 19.6 MiB (0%)
Title                                    : English-SDH-PGS
Language                                 : English
Default                                  : No
Forced                                   : No

Text #4
ID                                       : 8
Format                                   : PGS
Muxing mode                              : zlib
Codec ID                                 : S_HDMV/PGS
Codec ID/Info                            : Picture based subtitle format used on BDs/HD-DVDs
Duration                                 : 1 h 41 min
Bit rate                                 : 21.9 kb/s
Count of elements                        : 1836
Stream size                              : 15.9 MiB (0%)
Title                                    : Bulgarian-PGS
Language                                 : Bulgarian
Default                                  : No
Forced                                   : No

Text #5
ID                                       : 9
Format                                   : PGS
Muxing mode                              : zlib
Codec ID                                 : S_HDMV/PGS
Codec ID/Info                            : Picture based subtitle format used on BDs/HD-DVDs
Duration                                 : 1 h 36 min
Bit rate                                 : 19.6 kb/s
Count of elements                        : 1950
Stream size                              : 13.5 MiB (0%)
Title                                    : Chinese-PGS
Language                                 : Chinese
Default                                  : No
Forced                                   : No

Text #6
ID                                       : 10
Format                                   : PGS
Muxing mode                              : zlib
Codec ID                                 : S_HDMV/PGS
Codec ID/Info                            : Picture based subtitle format used on BDs/HD-DVDs
Duration                                 : 1 h 36 min
Bit rate                                 : 21.1 kb/s
Count of elements                        : 1950
Stream size                              : 14.5 MiB (0%)
Title                                    : Chinese-PGS
Language                                 : Chinese
Default                                  : No
Forced                                   : No

Text #7
ID                                       : 11
Format                                   : PGS
Muxing mode                              : zlib
Codec ID                                 : S_HDMV/PGS
Codec ID/Info                            : Picture based subtitle format used on BDs/HD-DVDs
Duration                                 : 1 h 41 min
Bit rate                                 : 17.4 kb/s
Count of elements                        : 1800
Stream size                              : 12.6 MiB (0%)
Title                                    : Croatian-PGS
Language                                 : Croatian
Default                                  : No
Forced                                   : No

Text #8
ID                                       : 12
Format                                   : PGS
Muxing mode                              : zlib
Codec ID                                 : S_HDMV/PGS
Codec ID/Info                            : Picture based subtitle format used on BDs/HD-DVDs
Duration                                 : 1 h 45 min
Bit rate                                 : 18.1 kb/s
Count of elements                        : 1856
Stream size                              : 13.7 MiB (0%)
Title                                    : Czech-PGS
Language                                 : Czech
Default                                  : No
Forced                                   : No

Text #9
ID                                       : 13
Format                                   : PGS
Muxing mode                              : zlib
Codec ID                                 : S_HDMV/PGS
Codec ID/Info                            : Picture based subtitle format used on BDs/HD-DVDs
Duration                                 : 1 h 44 min
Bit rate                                 : 19.6 kb/s
Count of elements                        : 1560
Stream size                              : 14.6 MiB (0%)
Title                                    : Danish-PGS
Language                                 : Danish
Default                                  : No
Forced                                   : No

Text #10
ID                                       : 14
Format                                   : PGS
Muxing mode                              : zlib
Codec ID                                 : S_HDMV/PGS
Codec ID/Info                            : Picture based subtitle format used on BDs/HD-DVDs
Duration                                 : 1 h 35 min
Bit rate                                 : 19.5 kb/s
Count of elements                        : 1436
Stream size                              : 13.3 MiB (0%)
Title                                    : Dutch-PGS
Language                                 : Dutch
Default                                  : No
Forced                                   : No

Text #11
ID                                       : 15
Format                                   : PGS
Muxing mode                              : zlib
Codec ID                                 : S_HDMV/PGS
Codec ID/Info                            : Picture based subtitle format used on BDs/HD-DVDs
Duration                                 : 1 h 44 min
Bit rate                                 : 18.2 kb/s
Count of elements                        : 1716
Stream size                              : 13.6 MiB (0%)
Title                                    : Finnish-PGS
Language                                 : Finnish
Default                                  : No
Forced                                   : No

Text #12
ID                                       : 16
Format                                   : PGS
Muxing mode                              : zlib
Codec ID                                 : S_HDMV/PGS
Codec ID/Info                            : Picture based subtitle format used on BDs/HD-DVDs
Duration                                 : 1 h 44 min
Bit rate                                 : 17.6 kb/s
Count of elements                        : 1728
Stream size                              : 13.1 MiB (0%)
Title                                    : French-PGS
Language                                 : French
Default                                  : No
Forced                                   : No

Text #13
ID                                       : 17
Format                                   : PGS
Muxing mode                              : zlib
Codec ID                                 : S_HDMV/PGS
Codec ID/Info                            : Picture based subtitle format used on BDs/HD-DVDs
Duration                                 : 1 h 35 min
Bit rate                                 : 26.3 kb/s
Count of elements                        : 1714
Stream size                              : 17.9 MiB (0%)
Title                                    : German-PGS
Language                                 : German
Default                                  : No
Forced                                   : No

Text #14
ID                                       : 18
Format                                   : PGS
Muxing mode                              : zlib
Codec ID                                 : S_HDMV/PGS
Codec ID/Info                            : Picture based subtitle format used on BDs/HD-DVDs
Duration                                 : 1 h 39 min
Bit rate                                 : 23.1 kb/s
Count of elements                        : 1834
Stream size                              : 16.4 MiB (0%)
Title                                    : Greek-PGS
Language                                 : Greek
Default                                  : No
Forced                                   : No

Text #15
ID                                       : 19
Format                                   : PGS
Muxing mode                              : zlib
Codec ID                                 : S_HDMV/PGS
Codec ID/Info                            : Picture based subtitle format used on BDs/HD-DVDs
Duration                                 : 1 h 35 min
Bit rate                                 : 19.2 kb/s
Count of elements                        : 1832
Stream size                              : 13.0 MiB (0%)
Title                                    : Hindi-PGS
Language                                 : Hindi
Default                                  : No
Forced                                   : No

Text #16
ID                                       : 20
Format                                   : PGS
Muxing mode                              : zlib
Codec ID                                 : S_HDMV/PGS
Codec ID/Info                            : Picture based subtitle format used on BDs/HD-DVDs
Duration                                 : 1 h 44 min
Bit rate                                 : 18.7 kb/s
Count of elements                        : 1618
Stream size                              : 13.9 MiB (0%)
Title                                    : Hungarian-PGS
Language                                 : Hungarian
Default                                  : No
Forced                                   : No

Text #17
ID                                       : 21
Format                                   : PGS
Muxing mode                              : zlib
Codec ID                                 : S_HDMV/PGS
Codec ID/Info                            : Picture based subtitle format used on BDs/HD-DVDs
Duration                                 : 1 h 35 min
Bit rate                                 : 25.0 kb/s
Count of elements                        : 1818
Stream size                              : 17.0 MiB (0%)
Title                                    : Italian-PGS
Language                                 : Italian
Default                                  : No
Forced                                   : No

Text #18
ID                                       : 22
Format                                   : PGS
Muxing mode                              : zlib
Codec ID                                 : S_HDMV/PGS
Codec ID/Info                            : Picture based subtitle format used on BDs/HD-DVDs
Duration                                 : 1 h 44 min
Bit rate                                 : 16.7 kb/s
Count of elements                        : 1634
Stream size                              : 12.4 MiB (0%)
Title                                    : Norwegian-PGS
Language                                 : Norwegian
Default                                  : No
Forced                                   : No

Text #19
ID                                       : 23
Format                                   : PGS
Muxing mode                              : zlib
Codec ID                                 : S_HDMV/PGS
Codec ID/Info                            : Picture based subtitle format used on BDs/HD-DVDs
Duration                                 : 1 h 35 min
Bit rate                                 : 19.4 kb/s
Count of elements                        : 1770
Stream size                              : 13.2 MiB (0%)
Title                                    : Polish-PGS
Language                                 : Polish
Default                                  : No
Forced                                   : No

Text #20
ID                                       : 24
Format                                   : PGS
Muxing mode                              : zlib
Codec ID                                 : S_HDMV/PGS
Codec ID/Info              &n

回复

使用道具 举报

小黑屋|百度云资源论坛 |网站地图

本网站所有资源来自网络,如无意中侵犯了您的权益,请发邮件至 [email protected],立即清除相关链接

GMT+8, 2020-10-21 15:50 , Processed in 0.102567 second(s), 20 queries .

Powered by Discuz! X3.2

© 2001-2013 Comsenz Inc.

快速回复 返回顶部 返回列表