百度云资源论坛

 找回密码
 立即注册
搜索

金色梦乡 Golden.Slumber.2018.KOREAN.1080p.BluRay.x264.DTS-CHD 9.46GB

[复制链接]
帖子完整标题:金色梦乡 Golden.Slumber.2018.KOREAN.1080p.BluRay.x264.DTS-CHD 9.46GB




◎译  名 金色梦乡 / Golden Slumber / 宅配男逃亡曲(台) / 暗杀速递(港) / 金色梦乡韩国版
◎片  名 ?????
◎年  代 2018
◎产  地 韩国
◎类  别 剧情 / 悬疑
◎片  长 109分钟
◎导  演 卢东硕 Dong-seok No
◎编  剧 李海准 Hae-jun Lee / 卢东硕 Dong-seok No / 曹义锡? Ui-seok Jo / 伊坂幸太郎 Kotaro Isaka
◎主  演 姜栋元 Dong-won Kang
       韩孝周 Hyo-ju Han
       金义城 Eui-sung Kim
       金成钧 Sung-Kyun Kim
       金大明 Dae-Myung Kim
       刘在明 Jae-myung Yoo
       白奉基 Bong-Gi Baek
       李俊赫 Joon-Hyuk Lee
       崔宇植 Woo-Sik Choi
       郑素敏 Jeong So Min
       尹继尚 Gye-sang Yun
       李相喜 Sang-hee Lee
       元贤俊 Won Hyeon-joon
       张勇福 Jang Yong-bok
       朴根亚 Park Geon-ah
       郑亨锡 Jeong Hyeong-seok
       袁民奎 Woo Min-kyu
       李杭娜 Lee Hang-na
       柳惠琳 Ryu Hye-rin
       车顺裴 Cha Soon-bae
       徐光载 Seo Gwang-jae
       李東勇 Lee Dong-yong
       廉惠兰 Yum Hye-ran
       金裕贞 Yoo-Jeong Kim


◎标  签 韩国 | 悬疑 | 2018 | 犯罪 | 小说改编 | 剧情 | 政治 | 动作

◎简  介   

  根据日本作家伊坂幸太郎的同名原著改编,讲述平凡的快递司机金建宇陷入权利斗争,莫名背上暗杀新总统候选人罪名后一路逃亡的故事
Video
ID                                       : 1
Format                                   : AVC
Format/Info                              : Advanced Video Codec
Format settings                          : CABAC / 4 Ref Frames
Format settings, CABAC                   : Yes
Format settings, ReFrames                : 4 frames
Codec ID                                 : V_MPEG4/ISO/AVC
Duration                                 : 1 h 48 min
Bit rate                                 : 10.9 Mb/s
Width                                    : 1 920 pixels
Height                                   : 804 pixels
Display aspect ratio                     : 2.40:1
Frame rate mode                          : Constant
Frame rate                               : 23.976 (24000/1001/189150) FPS
Color space                              : YUV
Chroma subsampling                       : 4:2:0
Bit depth                                : 8 bits
Scan type                                : Progressive
Bits/(Pixel*Frame)                       : 0.296
Stream size                              : 8.31 GiB (88%
Writing library                          : x264 core 157 r2970+47 cae74a0 t_mod_New
Encoding settings                        : cabac=1 / ref=4 / deblock=1:-3:-3 / analyse=0x3:0x133 / me=umh / subme=11 / psy=1 / fade_compensate=0.00 / psy_rd=0.95:0.10 / mixed_ref=1 / me_range=48 / chroma_me=1 / trellis=2 / 8x8dct=1 / cqm=0 / deadzone=21,11 / fast_pskip=0 / chroma_qp_offset=-4 / threads=12 / lookahead_threads=2 / sliced_threads=0 / nr=0 / decimate=1 / interlaced=0 / bluray_compat=0 / constrained_intra=0 / fgo=0 / bframes=8 / b_pyramid=2 / b_adapt=2 / b_bias=0 / direct=3 / weightb=1 / open_gop=0 / weightp=2 / keyint=250 / keyint_min=23 / scenecut=40 / intra_refresh=0 / rc_lookahead=60 / rc=crf / mbtree=0 / crf=18.0000 / qcomp=0.70 / qpmin=0:0:0 / qpmax=69:69:69 / qpstep=4 / vbv_maxrate=35000 / vbv_bufsize=35000 / crf_max=0.0 / nal_hrd=none / filler=0 / ip_ratio=1.40 / pb_ratio=1.30 / aq=3:1.00 / aq-sensitivity=10.00 / aq-factor=1.00:1.00:1.00 / aq2=0 / aq3=0
Language                                 : Korean
Default                                  : Yes
Forced                                   : No

Audio
ID                                       : 2
Format                                   : DTS
Format/Info                              : Digital Theater Systems
Codec ID                                 : A_DTS
Duration                                 : 1 h 48 min
Bit rate mode                            : Constant
Bit rate                                 : 1 509 kb/s
Channel(s)                               : 6 channels
Channel layout                           : C L R Ls Rs LFE
Sampling rate                            : 48.0 kHz
Frame rate                               : 93.750 FPS (512 SPF)
Bit depth                                : 16 bits
Compression mode                         : Lossy
Stream size                              : 1.15 GiB (12%)
Language                                 : Korean
Default                                  : Yes
Forced                                   : No

Text
ID                                       : 3
Format                                   : UTF-8
Codec ID                                 : S_TEXT/UTF8
Codec ID/Info                            : UTF-8 Plain Text
Duration                                 : 1 h 42 min
Bit rate                                 : 41 b/s
Count of elements                        : 1154
Stream size                              : 30.8 KiB (0%)
Language                                 : English
Default                                  : Yes
Forced                                   : No




                                                                        

2d755f9b7fb5630e822c7d2dc73a529e.zip (47.94 KB, 下载次数: 0)

回复

使用道具 举报

小黑屋|百度云资源论坛 |网站地图

本网站所有资源来自网络,如无意中侵犯了您的权益,请发邮件至 [email protected],立即清除相关链接

GMT+8, 2020-8-4 07:01 , Processed in 0.108221 second(s), 23 queries .

Powered by Discuz! X3.2

© 2001-2013 Comsenz Inc.

快速回复 返回顶部 返回列表