百度云资源论坛

 找回密码
 立即注册
搜索

大象席地而坐 An.Elephant.Sitting.Still.2018.1080p.BluRay.x264-USURY 14....

[复制链接]
帖子完整标题:大象席地而坐 An.Elephant.Sitting.Still.2018.1080p.BluRay.x264-USURY 14.22GB




◎译  名 An Elephant Sitting Still / 爱在樱花盛开时 / 金羊毛
◎片  名 大象席地而坐
◎年  代 2018
◎产  地 中国大陆
◎类  别 剧情
◎语  言 汉语普通话
◎上映日期 2018-02-16(柏林电影节) / 2019-11-02(日本)
◎IMDb评分  7.8/10 from 4355 users
◎片  长 234分钟(导演剪辑版)
◎导  演 胡迁 Qian Hu
◎编  剧 胡迁 Qian Hu
◎主  演 彭昱畅 Yuchang Peng
       章宇 Yu Zhang
       王玉雯 Uvin Wang
       李从喜 Congxi Li
       董向荣 Xiangrong Dong
       王柠 Ning Wang
       赵燕国彰 Guozhang Zhao-Yan
       朱颜曼滋 Yanmanzi Zhu
       凌正辉 Zhenghui Ling
       王超北 Chaobei Wang
       王雪洋 Xueyang Wang


◎标  签 人性 | 文艺 | 剧情 | 中国大陆 | 胡波 | 独立电影 | 柏林电影节 | 国产

◎简  介   

  满州里动物园有一头大象,每天坐在那里。为朋友出头的少年、为弟报仇的恶霸哥哥、身陷囹圄的女生,卡在世界灰暗的缝隙里无法脱身,却挣扎着去看大象。萧瑟寒冬的一天,绝望身影在不对称不平衡的影像中碰撞, 爆裂了压抑的沉郁,在粗糙布景、朦胧灯光的低成本制作中肆意蔓延。作者兼导演胡波 (笔名胡迁)首作,以青涩朴质与震撼感性,获柏林影展赏识入围论坛单元, 却是无法嵌合和谐主旋律的一块失落拼图。看不见大象是共同宿命,胡波骤然陨落,也成了这一代人的遗憾。

◎获奖情况  

  第68届柏林国际电影节(2018)
  最佳处女作奖 特别提及 胡波
  最佳处女作奖(提名) 胡波
  费比西奖(国际影评人联盟奖) 论坛及新电影论坛最佳影片 胡波

  第55届台北金马影展(2018)
  金马奖 最佳剧情片
  金马奖 最佳男主角(提名) 彭昱畅
  金马奖 最佳改编剧本 胡波
  金马奖 最佳新导演(提名) 胡波
  金马奖 最佳摄影(提名) 范超
  金马奖 最佳原创配乐(提名)
  观众票选最佳影片

  第39届香港电影金像奖(2020)
  最佳亚洲电影

  第66届圣塞巴斯蒂安国际电影节(2018)
  开放电影大奖(提名) 胡波

  第42届香港国际电影节(2018)
  观众票选大奖 胡波

  第5届豆瓣电影年度榜单(2018)
  评分最高的华语电影(提名)
Video
ID                                       : 1
Format                                   : AVC
Format/Info                              : Advanced Video Codec
Format settings                          : CABAC / 4 Ref Frames
Format settings, CABAC                   : Yes
Format settings, Reference frames        : 4 frames
Codec ID                                 : V_MPEG4/ISO/AVC
Duration                                 : 3 h 54 min
Bit rate                                 : 8 242 kb/s
Width                                    : 1 920 pixels
Height                                   : 1 080 pixels
Display aspect ratio                     : 16:9
Frame rate mode                          : Constant
Frame rate                               : 24.000 FPS
Color space                              : YUV
Chroma subsampling                       : 4:2:0
Bit depth                                : 8 bits
Scan type                                : Progressive
Bits/(Pixel*Frame)                       : 0.166
Stream size                              : 13.5 GiB (95%)
Writing library                          : x264 core 157 r2969 d4099dd
Encoding settings                        : cabac=1 / ref=4 / deblock=1:-3:-3 / analyse=0x3:0x133 / me=umh / subme=9 / psy=1 / psy_rd=1.00:0.00 / mixed_ref=1 / me_range=16 / chroma_me=1 / trellis=2 / 8x8dct=1 / cqm=0 / deadzone=21,11 / fast_pskip=0 / chroma_qp_offset=-2 / threads=18 / lookahead_threads=1 / sliced_threads=0 / nr=0 / decimate=1 / interlaced=0 / bluray_compat=0 / constrained_intra=0 / bframes=3 / b_pyramid=2 / b_adapt=1 / b_bias=0 / direct=3 / weightb=1 / open_gop=0 / weightp=2 / keyint=240 / keyint_min=24 / scenecut=40 / intra_refresh=0 / rc_lookahead=50 / rc=2pass / mbtree=1 / bitrate=8242 / ratetol=1.0 / qcomp=0.60 / qpmin=0 / qpmax=69 / qpstep=4 / cplxblur=20.0 / qblur=0.5 / ip_ratio=1.40 / aq=1:1.00
Language                                 : English
Default                                  : Yes
Forced                                   : No

Audio
ID                                       : 2
Format                                   : AC-3
Format/Info                              : Audio Coding 3
Commercial name                          : Dolby Digital
Codec ID                                 : A_AC3
Duration                                 : 3 h 54 min
Bit rate mode                            : Constant
Bit rate                                 : 448 kb/s
Channel(s)                               : 6 channels
Channel layout                           : L R C LFE Ls Rs
Sampling rate                            : 48.0 kHz
Frame rate                               : 31.250 FPS (1536 SPF)
Compression mode                         : Lossy
Stream size                              : 750 MiB (5%)
Language                                 : Chinese
Service kind                             : Complete Main
Default                                  : Yes
Forced                                   : No

Text
ID                                       : 3
Format                                   : UTF-8
Codec ID                                 : S_TEXT/UTF8
Codec ID/Info                            : UTF-8 Plain Text
Duration                                 : 3 h 41 min
Bit rate                                 : 20 b/s
Count of elements                        : 1304
Stream size                              : 32.5 KiB (0%)
Title                                    : English
Language                                 : English
Default                                  : Yes
Forced                                   : Yes

Menu
00:00:00.000                             : en:00:00:00.000
00:22:24.083                             : en:00:22:24.083
00:44:09.917                             : en:00:44:09.917
01:06:58.042                             : en:01:06:58.042
01:34:20.167                             : en:01:34:20.167
01:54:59.042                             : en:01:54:59.042
02:20:46.083                             : en:02:20:46.083
02:48:13.125                             : en:02:48:13.125
03:08:50.583                             : en:03:08:50.583
03:34:43.000                             : en:03:34:43.000




                                                                                                                                                                                                        
                                                                                                                                                                                                                                                                                                                           
ab7a20833ad2c9447255b9d0a5d6461b.zip (72.66 KB, 下载次数: 0)

回复

使用道具 举报

小黑屋|百度云资源论坛 |网站地图

本网站所有资源来自网络,如无意中侵犯了您的权益,请发邮件至 [email protected],立即清除相关链接

GMT+8, 2020-8-4 08:10 , Processed in 0.134265 second(s), 23 queries .

Powered by Discuz! X3.2

© 2001-2013 Comsenz Inc.

快速回复 返回顶部 返回列表