百度云资源论坛

 找回密码
 立即注册
搜索

深海狂鲨3 Deep.Blue.Sea.3.2020.720p.BluRay.x264.DTS-FGT 4.91GB

[复制链接]
帖子完整标题:深海狂鲨3 Deep.Blue.Sea.3.2020.720p.BluRay.x264.DTS-FGT 4.91GB




◎译  名 深海狂鲨3
◎片  名 Deep Blue Sea 3
◎年  代 2020
◎产  地 美国
◎类  别 动作 / 科幻 / 恐怖
◎语  言 英语
◎上映日期 2020-07-28(美国)
◎片  长 99分钟
◎导  演 约翰·波罗 John Pogue
◎编  剧 德克·布莱克曼 Dirk Blackman
◎主  演 纳撒尼尔·布佐尼克 Nathaniel Buzolic
       Emerson Brooks
       布伦·福斯特 Bren Foster
       苍丽娜 Reina Aoi
       Alex Bhat
       Siya Mayola
       Ernest St Claire
       DeVille Vannik
       Brashaad Mayweather
       坦妮娅·雷蒙德 Tania Raymonde
       欧内斯特·圣·克莱尔 Ernest St.Clair


◎标  签 2020 | 美国 | 线上

◎简  介   

  Dr. Emma Collins and her team are spending their third summer on the island of Little Happy studying the effect of climate change on the great white sharks who come to the nearby nursery every year to give birth. Along with the last two inhabitants of this former fishing village, their peaceful life is disrupted when a "scientific" team led by her ex-boyfriend and marine biologist Richard show up looking for three bull sharks who we soon learn aren't just any bull sharks.
Video
ID                                       : 1
Format                                   : AVC
Format/Info                              : Advanced Video Codec
Format settings                          : CABAC / 4 Ref Frames
Format settings, CABAC                   : Yes
Format settings, Reference frames        : 4 frames
Codec ID                                 : V_MPEG4/ISO/AVC
Duration                                 : 1 h 40 min
Bit rate                                 : 5 500 kb/s
Width                                    : 1 280 pixels
Height                                   : 534 pixels
Display aspect ratio                     : 2.40:1
Original display aspect ratio            : 2.40:1
Frame rate mode                          : Constant
Frame rate                               : 23.976 (24000/1001/189150) FPS
Color space                              : YUV
Chroma subsampling                       : 4:2:0
Bit depth                                : 8 bits
Scan type                                : Progressive
Bits/(Pixel*Frame)                       : 0.336
Stream size                              : 3.85 GiB (78%)
Title                                    : Deep.Blue.Sea.3.2020.720p.BluRay.x264.DTS-FGT
Writing library                          : x264 core 148 r2795M aaa9aa8
Encoding settings                        : cabac=1 / ref=4 / deblock=1:-2:-2 / analyse=0x3:0x113 / me=umh / subme=9 / psy=1 / psy_rd=1.00:0.15 / mixed_ref=1 / me_range=16 / chroma_me=1 / trellis=2 / 8x8dct=1 / cqm=0 / deadzone=21,11 / fast_pskip=1 / chroma_qp_offset=-3 / threads=24 / lookahead_threads=3 / sliced_threads=0 / nr=0 / decimate=1 / interlaced=0 / bluray_compat=0 / constrained_intra=0 / bframes=3 / b_pyramid=2 / b_adapt=1 / b_bias=0 / direct=3 / weightb=1 / open_gop=0 / weightp=2 / keyint=250 / keyint_min=25 / scenecut=40 / intra_refresh=0 / rc_lookahead=50 / rc=2pass / mbtree=1 / bitrate=5500 / ratetol=1.0 / qcomp=0.60 / qpmin=0 / qpmax=69 / qpstep=4 / cplxblur=20.0 / qblur=0.5 / vbv_maxrate=31250 / vbv_bufsize=31250 / nal_hrd=none / filler=0 / ip_ratio=1.40 / aq=1:1.00
Default                                  : Yes
Forced                                   : No

Audio
ID                                       : 2
Format                                   : DTS
Format/Info                              : Digital Theater Systems
Codec ID                                 : A_DTS
Duration                                 : 1 h 40 min
Bit rate mode                            : Constant
Bit rate                                 : 1 509 kb/s
Channel(s)                               : 6 channels
Channel layout                           : C L R Ls Rs LFE
Sampling rate                            : 48.0 kHz
Frame rate                               : 93.750 FPS (512 SPF)
Bit depth                                : 24 bits
Compression mode                         : Lossy
Stream size                              : 1.06 GiB (22%)
Title                                    : Deep.Blue.Sea.3.2020.720p.BluRay.x264.DTS-FGT
Language                                 : English
Default                                  : Yes
Forced                                   : No

Text
ID                                       : 3
Format                                   : UTF-8
Codec ID                                 : S_TEXT/UTF8
Codec ID/Info                            : UTF-8 Plain Text
Duration                                 : 1 h 30 min
Bit rate                                 : 48 b/s
Count of elements                        : 1054
Stream size                              : 32.1 KiB (0%)
Language                                 : English
Default                                  : Yes
Forced                                   : No

Menu
00:00:00.000                             : en:Chapter 01
00:09:50.006                             : en:Chapter 02
00:19:15.154                             : en:Chapter 03
00:28:50.270                             : en:Chapter 04
00:38:06.034                             : en:Chapter 05
00:45:09.290                             : en:Chapter 06
00:54:28.891                             : en:Chapter 07
01:04:14.142                             : en:Chapter 08
01:14:12.406                             : en:Chapter 09
01:23:10.819                             : en:Chapter 10
01:32:48.229                             : en:Chapter 11




                                                                                   

a3c5aa873ebe59d6f151edde1955c875.zip (50.48 KB, 下载次数: 0)

回复

使用道具 举报

小黑屋|百度云资源论坛 |网站地图

本网站所有资源来自网络,如无意中侵犯了您的权益,请发邮件至 [email protected],立即清除相关链接

GMT+8, 2020-8-7 05:31 , Processed in 0.118166 second(s), 23 queries .

Powered by Discuz! X3.2

© 2001-2013 Comsenz Inc.

快速回复 返回顶部 返回列表