百度云资源论坛

 找回密码
 立即注册
搜索

[BD-4K] 僵尸世界大战/地球末日战 World.War.Z.2013.2160p.STAN.WEBRip.DDP5.1....

[复制链接]
百度云电影 发表于 2020-9-23 13:21:44 | 显示全部楼层 |阅读模式
帖子完整标题:僵尸世界大战/地球末日战 World.War.Z.2013.2160p.STAN.WEBRip.DDP5.1.x265-AJP69 11.33GB




◎译  名 僵尸世界大战/地球末日战(港)/末日之战(台)
◎片  名 World War Z
◎年  代 2013
◎产  地 美国
◎类  别 动作 / 科幻 / 恐怖
◎语  言 英语,西班牙语,希伯来语,阿拉伯语
◎上映日期 2013-06-02(伦敦首映) / 2013-06-21(美国)
◎IMDb评分  7/10 from 591328 users
◎片  长 116分钟
◎导  演 马克·福斯特 Marc Forster
◎编  剧 马修·迈克尔·卡纳汉 Matthew Michael Carnahan / 德鲁·高达 Drew Goddard / 达蒙·林德洛夫 Damon Lindelof / J·迈克尔·斯特拉辛斯基 J. Michael Straczynski / 马克斯·布鲁克斯 Max Brooks
◎主  演 布拉德·皮特 Brad Pitt
       米瑞·伊诺丝 Mireille Enos
       马修·福克斯 Matthew Fox
       埃里克·韦斯特 Eric West
       大卫·摩斯 David Morse
       詹姆斯·戴尔 James Badge Dale
       伊莱耶斯·加贝尔 Elyes Gabel
       莫里兹·布雷多 Moritz Bleibtreu
       斯特林·杰里斯 Sterling Jerins
       达妮埃拉·凯尔泰斯 Daniella Kertesz
       大卫·安德鲁斯 David Andrews
       金斯利·本-阿迪尔 Kingsley Ben-Adir
       皮耶尔弗兰切斯科·法维诺 Pierfrancesco Favino
       康斯坦丁·哈宾斯基 Konstantin Khabensky
       克里斯蒂安·孔特雷拉斯 Christian Contreras
       约翰·麦克米兰 John MacMillan
       鲁迪·博肯 Ludi Boeken
       安吉·K·亚当斯 Aggy K. Adams
       格里高利·菲托西 Grégory Fitoussi
       伊万·卡马拉斯 Iván Kamarás
       米希尔·赫伊斯曼 Michiel Huisman
       乔纳森·霍华德 Jonathan Howard
       露西·拉塞尔 Lucy Russell
       彼得·卡帕尔迪 Peter Capaldi
       鲁丝·内伽 Ruth Negga
       法纳·莫科纳 Fana Mokoena
       法布里齐奥·扎卡里·奇诺 Fabrizio Zacharee Guido

◎标  签 丧尸 | 美国 | 僵尸 | 灾难 | 科幻 | 惊悚 | 恐怖 | 动作

◎简  介

  费城一个毫无征兆的宁静早晨,前联合国调查员盖瑞·雷恩(布拉德·皮特 Brad Pitt 饰)驾车载着妻子凯伦(米瑞·伊诺丝 Mireille Enos 饰)和两个女儿蕾切尔(Abigail Hargrove 饰)、康妮(Sterling Jerins 饰)外出。谁知原本快乐的气氛很快变为恐慌与死亡所替代,连环的爆炸,惊恐逃散的人群,无序的车祸以及啃咬他人的丧尸,繁华大都会转瞬沦陷。盖瑞费尽九牛二虎之力带着妻女逃生,最终逃到联合国副秘书长所在的航母上,进而得知包括美国总统在内的数名大国首脑均已死亡,丧尸病毒业已蔓延全球。为了阻止世界毁灭,格里无奈受命,和来自哈佛的病毒学博士法斯巴克(Elyes Gabel 饰)前往病毒的源头之地寻找解除危机的办法。
  
  这是一场几乎完全没有希望且充满磨难的征程,世界命运危在旦夕……

◎获奖情况

  第23届MTV电影奖 ?(2014)
  MTV电影奖最佳惊恐戏表演(提名) 布拉德·皮特
  
  第61届美国音效剪辑协会奖 ?(2014)
  金卷轴奖最佳配乐剪辑(提名) 凯文·麦基弗?/?JohnFinklea
  
  第19届美国评论家选择电影奖 ?(2014)
  动作片最佳男主角(提名) 布拉德·皮特
  最佳科幻/恐怖片(提名)
  
  第18届金卫星奖 ?(2014)
  电影部门最佳视觉效果(提名) 斯科特·法勒?/?安德鲁·R·琼斯?/?杰西卡·诺曼?/?MattJohnson
  
  第17届好莱坞电影奖 ?(2013)
  年度电影(提名) 马克·福斯特
  
  第15届美国青少年选择奖 ?(2013)
  最佳暑期动作片(提名)
  
  第4届豆瓣电影鑫像奖 ?(2014)
  鑫豆单元最佳科幻/动作片(提名)
Video
ID                                       : 1
Format                                   : HEVC
Format/Info                              : High Efficiency Video Coding
Codec ID                                 : V_MPEGH/ISO/HEVC
Duration                                 : 1 h 56 min
Bit rate                                 : 13.5 Mb/s
Width                                    : 3 840 pixels
Height                                   : 2 160 pixels
Display aspect ratio                     : 16:9
Frame rate mode                          : Constant
Frame rate                               : 23.976 (24000/1001/189150) FPS
Color space                              : YUV
Chroma subsampling                       : 4:2:0
Bit depth                                : 8 bits
Bits/(Pixel*Frame)                       : 0.068
Stream size                              : 11.0 GiB (97%)
Default                                  : Yes
Forced                                   : No
Color range                              : Limited
Color primaries                          : BT.709
Transfer characteristics                 : BT.709
Matrix coefficients                      : BT.709

Audio
ID                                       : 2
Format                                   : E-AC-3
Format/Info                              : Enhanced AC-3
Commercial name                          : Dolby Digital Plus
Codec ID                                 : A_EAC3
Duration                                 : 1 h 56 min
Bit rate mode                            : Constant
Bit rate                                 : 448 kb/s
Channel(s)                               : 6 channels
Channel layout                           : L R C LFE Ls Rs
Sampling rate                            : 48.0 kHz
Frame rate                               : 31.250 FPS (1536 SPF)
Compression mode                         : Lossy
Stream size                              : 372 MiB (3%)
Language                                 : English
Service kind                             : Complete Main
Default                                  : Yes
Forced                                   : No

Text
ID                                       : 3
Format                                   : UTF-8
Codec ID                                 : S_TEXT/UTF8
Codec ID/Info                            : UTF-8 Plain Text
Duration                                 : 1 h 46 min
Bit rate                                 : 58 b/s
Count of elements                        : 1497
Stream size                              : 45.5 KiB (0%)
Title                                    : SDH
Language                                 : English
Default                                  : No
Forced                                   : No

Menu
01:48:47.000                             : en:Credits




                                                                                                                                                                                                        
                                                                                                                                                                                                                                                                                                                                                                                                                                                                                                                                                                                                                                                                                                                              
6c4d3945073d4adb349ff181072dc491.zip (58.11 KB, 下载次数: 0)

回复

使用道具 举报

小黑屋|百度云资源论坛 |网站地图

本网站所有资源来自网络,如无意中侵犯了您的权益,请发邮件至 aa63[email protected],立即清除相关链接

GMT+8, 2020-10-21 15:52 , Processed in 0.110752 second(s), 23 queries .

Powered by Discuz! X3.2

© 2001-2013 Comsenz Inc.

快速回复 返回顶部 返回列表