百度云资源论坛

 找回密码
 立即注册
搜索

夺命隧道 The.Tunnel.2019.NORWEGIAN.1080p.BluRay.x264.DTS-NOGRP 10.49GB

[复制链接]
百度云电影 发表于 2020-9-22 15:36:44 | 显示全部楼层 |阅读模式
帖子完整标题:夺命隧道 The.Tunnel.2019.NORWEGIAN.1080p.BluRay.x264.DTS-NOGRP 10.49GB




◎译  名 夺命隧道/The Tunnel/隧道浩劫:火海求生(港)
◎片  名 Tunnelen
◎年  代 2019
◎产  地 挪威
◎类  别 惊悚
◎语  言 挪威语
◎上映日期 2019-12-25(挪威)
◎片  长 104分钟
◎主  演 托尔比约恩·哈尔 Thorbj?rn Harr
       丽莎·卡勒希德 Lisa Carlehed
       Per Egil Aske
       简·冈纳·勒伊斯 Jan Gunnar R?ise
       Eldar Skar
       凯瑞·豪根·西德尼斯 Kyrre Haugen Sydness
       亨利克·霍尔姆 Henrik Holm
       西莉耶·布雷维克 Silje Breivik

◎标  签 灾难 | 挪威 | 剧情 | 2019 | 电影 | 北欧五国 | 挪威语 | henrik

◎简  介

  一辆油罐车在隧道内发生车祸,回家过圣诞的路人被困于隧道大火,山上暴风雪肆虐,急救人员奋力赶往事故隧道,展开救援行动
Video
ID                                       : 1
Format                                   : AVC
Format/Info                              : Advanced Video Codec
Format settings                          : CABAC / 5 Ref Frames
Format settings, CABAC                   : Yes
Format settings, Reference frames        : 5 frames
Codec ID                                 : V_MPEG4/ISO/AVC
Duration                                 : 1 h 43 min
Bit rate                                 : 13.0 Mb/s
Width                                    : 1 920 pixels
Height                                   : 804 pixels
Display aspect ratio                     : 2.40:1
Frame rate mode                          : Constant
Frame rate                               : 24.000 FPS
Color space                              : YUV
Chroma subsampling                       : 4:2:0
Bit depth                                : 8 bits
Scan type                                : Progressive
Bits/(Pixel*Frame)                       : 0.350
Stream size                              : 9.40 GiB (90%)
Writing library                          : x264 core 160 r3000+53 e3e4c3e t_mod_New [(8 & 10)
Encoding settings                        : cabac=1 / ref=5 / deblock=1:-3:-3 / analyse=0x3:0x133 / me=umh / subme=10 / psy=1 / fade_compensate=0.00 / psy_rd=1.00:0.00 / mixed_ref=1 / me_range=32 / chroma_me=1 / trellis=2 / 8x8dct=1 / cqm=0 / deadzone=21,11 / fast_pskip=0 / chroma_qp_offset=-2 / threads=24 / lookahead_threads=4 / sliced_threads=0 / nr=0 / decimate=0 / interlaced=0 / bluray_compat=0 / constrained_intra=0 / fgo=0 / bframes=8 / b_pyramid=2 / b_adapt=2 / b_bias=0 / direct=3 / weightb=1 / open_gop=0 / weightp=2 / keyint=250 / keyint_min=24 / scenecut=40 / intra_refresh=0 / rc=crf / mbtree=0 / crf=16.2000 / qcomp=0.60 / qpmin=0:0:0 / qpmax=69:69:69 / qpstep=4 / ip_ratio=1.30 / pb_ratio=1.20 / aq=3:0.85 / aq-sensitivity=10.00 / aq-factor=1.00:1.00:1.00 / aq2=0 / aq3=0
Language                                 : Norwegian
Default                                  : Yes
Forced                                   : No

Audio
ID                                       : 2
Format                                   : DTS
Format/Info                              : Digital Theater Systems
Codec ID                                 : A_DTS
Duration                                 : 1 h 43 min
Bit rate mode                            : Constant
Bit rate                                 : 1 509 kb/s
Channel(s)                               : 6 channels
Channel layout                           : C L R Ls Rs LFE
Sampling rate                            : 48.0 kHz
Frame rate                               : 93.750 FPS (512 SPF)
Bit depth                                : 24 bits
Compression mode                         : Lossy
Stream size                              : 1.09 GiB (10%)
Language                                 : Norwegian
Default                                  : Yes
Forced                                   : No

Text
ID                                       : 3
Format                                   : UTF-8
Codec ID                                 : S_TEXT/UTF8
Codec ID/Info                            : UTF-8 Plain Text
Duration                                 : 1 h 38 min
Bit rate                                 : 40 b/s
Count of elements                        : 783
Stream size                              : 29.5 KiB (0%)
Language                                 : English
Default                                  : Yes
Forced                                   : No

Menu
00:00:00.000                             : en:Chapter 01
00:10:05.708                             : en:Chapter 02
00:20:20.125                             : en:Chapter 03
00:30:51.458                             : en:Chapter 04
00:40:53.625                             : en:Chapter 05
00:51:45.750                             : en:Chapter 06
01:01:58.208                             : en:Chapter 07
01:12:20.750                             : en:Chapter 08
01:22:55.958                             : en:Chapter 09
01:33:29.416                             : en:Chapter 10





7f3e5c9b8a25917c1359cdf34c671bd0.zip (53.14 KB, 下载次数: 0)

回复

使用道具 举报

小黑屋|百度云资源论坛 |网站地图

本网站所有资源来自网络,如无意中侵犯了您的权益,请发邮件至 [email protected],立即清除相关链接

GMT+8, 2020-11-25 04:34 , Processed in 0.109174 second(s), 23 queries .

Powered by Discuz! X3.2

© 2001-2013 Comsenz Inc.

快速回复 返回顶部 返回列表