百度云资源论坛

 找回密码
 立即注册
搜索

法律的阴影 Gun.City.2018.1080p.BluRay.x264-USURY 8.75GB

[复制链接]
百度云电影 发表于 2020-7-27 14:18:45 | 显示全部楼层 |阅读模式
帖子完整标题:法律的阴影 Gun.City.2018.1080p.BluRay.x264-USURY 8.75GB




◎译  名 法律的阴影 / Gun City / 枪城
◎片  名 La sombra de la ley
◎年  代 2018
◎产  地 西班牙
◎类  别 惊悚
◎语  言 西班牙语
◎上映日期 2018-10-11(西班牙)
◎IMDb评分  6.3/10 from 3014 users
◎片  长 126分钟
◎导  演 丹尼·德拉托雷 Dani de la Torre
◎编  剧 Patxi Amezcua
◎主  演 Jaime Lorente
       威廉·米勒 William Miller
       帕科·图斯 Paco Tous
       米歇尔·珍娜 Michelle Jenner
       路易斯·托萨尔 Luis Tosar
       欧内斯特·艾戴里欧 Ernesto Alterio
       阿德里亚娜·托雷维哈诺 Adriana Torrebejano
       曼诺罗·索洛 Manolo Solo
       费尔南多·卡约 Fernando Cayo
       Vicente Romero
       José Manuel Poga
       佩普·托萨 Pep Tosar
       Paula del Río
       里卡多·德巴雷罗 Ricardo de Barreiro
       Xosé Barato


◎标  签 西班牙 | 犯罪 | 政治 | 剧情 | 社会 | 历史 | 阴谋 | 2018

◎简  介   

  西班牙惊悚片,背景是1921年的巴塞罗那,无政府主义者和警方之间的动荡未歇,暴乱黑帮,贪腐警察,罢工劳工,女权示威群众,一片混乱之际,又有一车军武在运输途中遭到偷窃,情势犹如一颗炸弹,随意爆炸,一名警员为双方效力,好查出是谁偷了可能点燃内战的军方武器...

◎获奖情况  

  第33届西班牙戈雅奖(2019)
  最佳摄影
  最佳艺术指导
  最佳特效(提名)
  最佳服装设计
  最佳化妆与发型(提名)
  最佳原创音乐(提名)
Video
ID                                       : 1
Format                                   : AVC
Format/Info                              : Advanced Video Codec
Format settings                          : CABAC / 5 Ref Frames
Format settings, CABAC                   : Yes
Format settings, Reference frames        : 5 frames
Codec ID                                 : V_MPEG4/ISO/AVC
Duration                                 : 2 h 5 min
Bit rate                                 : 8 430 kb/s
Width                                    : 1 920 pixels
Height                                   : 808 pixels
Display aspect ratio                     : 2.40:1
Frame rate mode                          : Constant
Frame rate                               : 24.000 FPS
Color space                              : YUV
Chroma subsampling                       : 4:2:0
Bit depth                                : 8 bits
Scan type                                : Progressive
Bits/(Pixel*Frame)                       : 0.226
Stream size                              : 7.42 GiB (85%)
Writing library                          : x264 core 157 r2935 545de2f
Encoding settings                        : cabac=1 / ref=5 / deblock=1:-3:-3 / analyse=0x3:0x133 / me=umh / subme=9 / psy=1 / psy_rd=1.00:0.00 / mixed_ref=1 / me_range=16 / chroma_me=1 / trellis=2 / 8x8dct=1 / cqm=0 / deadzone=21,11 / fast_pskip=0 / chroma_qp_offset=-2 / threads=12 / lookahead_threads=1 / sliced_threads=0 / nr=0 / decimate=1 / interlaced=0 / bluray_compat=0 / constrained_intra=0 / bframes=3 / b_pyramid=2 / b_adapt=1 / b_bias=0 / direct=3 / weightb=1 / open_gop=0 / weightp=2 / keyint=240 / keyint_min=24 / scenecut=40 / intra_refresh=0 / rc_lookahead=50 / rc=2pass / mbtree=1 / bitrate=8430 / ratetol=1.0 / qcomp=0.60 / qpmin=0 / qpmax=69 / qpstep=4 / cplxblur=20.0 / qblur=0.5 / ip_ratio=1.40 / aq=1:1.00
Language                                 : English
Default                                  : Yes
Forced                                   : No

Audio
ID                                       : 2
Format                                   : DTS
Format/Info                              : Digital Theater Systems
Codec ID                                 : A_DTS
Duration                                 : 2 h 5 min
Bit rate mode                            : Constant
Bit rate                                 : 1 509 kb/s
Channel(s)                               : 6 channels
Channel layout                           : C L R Ls Rs LFE
Sampling rate                            : 48.0 kHz
Frame rate                               : 93.750 FPS (512 SPF)
Bit depth                                : 24 bits
Compression mode                         : Lossy
Stream size                              : 1.33 GiB (15%)
Language                                 : Spanish
Default                                  : Yes
Forced                                   : No

Text
ID                                       : 3
Format                                   : UTF-8
Codec ID                                 : S_TEXT/UTF8
Codec ID/Info                            : UTF-8 Plain Text
Duration                                 : 1 h 57 min
Bit rate                                 : 40 b/s
Count of elements                        : 1258
Stream size                              : 34.8 KiB (0%)
Title                                    : English
Language                                 : English
Default                                  : Yes
Forced                                   : Yes

Menu
00:00:00.000                             : en:00:00:00.000
00:09:33.208                             : en:00:09:33.208
00:20:21.125                             : en:00:20:21.125
00:30:51.625                             : en:00:30:51.625
00:41:00.750                             : en:00:41:00.750
00:51:33.250                             : en:00:51:33.250
01:00:51.875                             : en:01:00:51.875
01:10:31.875                             : en:01:10:31.875
01:21:49.500                             : en:01:21:49.500
01:31:30.750                             : en:01:31:30.750
01:42:20.708                             : en:01:42:20.708
01:51:29.750                             : en:01:51:29.750
01:59:30.250                             : en:01:59:30.250




                                                                                                                                                                                                        
                                                                                                                                                                                                                                                                                                                                                                                                                                                                                                                                                                               b8d4ef8af6f2902081501ee42df8733a.zip (44.39 KB, 下载次数: 0)

回复

使用道具 举报

小黑屋|百度云资源论坛 |网站地图

本网站所有资源来自网络,如无意中侵犯了您的权益,请发邮件至 [email protected],立即清除相关链接

GMT+8, 2020-8-4 07:49 , Processed in 0.104589 second(s), 23 queries .

Powered by Discuz! X3.2

© 2001-2013 Comsenz Inc.

快速回复 返回顶部 返回列表