百度云资源论坛

 找回密码
 立即注册
搜索

与神同行2:因与缘 Along.with.the.Gods.The.Last.49.Days.2018.LIMITED.108...

[复制链接]
百度云资源 发表于 2020-7-27 14:18:45 | 显示全部楼层 |阅读模式
帖子完整标题:与神同行2:因与缘 Along.with.the.Gods.The.Last.49.Days.2018.LIMITED.1080p.BluRay.x264-USURY 9.83GB




◎译  名 与神同行2:因与缘 / Along With the Gods 2 / Along With the Gods: The Last 49 Days / 与神一起2 / 与神同在2 / 与神同行2:因与果 / 与神同行下 / 与神同行:最终审判(台) / 与神同行:终极审判(港) / 和神一起2
◎片  名 ????-?? ?
◎年  代 2018
◎产  地 韩国
◎类  别 动作 / 奇幻
◎语  言 韩语
◎上映日期 2018-08-01(韩国)
◎IMDb评分  7.1/10 from 4790 users
◎片  长 142分钟
◎导  演 金容华 Yong-hwa Kim
◎编  剧 金容华 Yong-hwa Kim
◎主  演 河正宇 Jung-woo Ha
       朱智勋 Ji-hun Ju
       马东锡 Tong-Seok Ma
       金香起 Hyang-ki Kim
       李政宰 Jung-Jae Lee
       赵汉哲 Han-chul Jo
       金明坤  Myung-gon Kim
       金东旭 Dong-wook Kim
       郑惟安 Yoo-ahn Jung
       都暻秀 Kyung-soo Doh


◎标  签 韩国 | 奇幻 | 人性 | 河正宇 | 剧情 | 温情 | 2018 | 魔幻

◎简  介   

  故事接上集,为了完成阎罗王(李政宰 饰)开出的条件,解怨脈(朱智勋 饰)与德春(金香起 饰)与凶悍的城主神(马东锡 饰)展开决斗。江林(河正宇 饰)也力劝一等兵(都暻秀 饰)公开秀鸿意外死亡的真相,就在阴间使者们试图完成任务的同时,千年前,他们生前的悲剧也将被逐一揭开…

◎获奖情况  

  第55届百想艺术大赏(2019)
  电影类 最佳艺术奖(提名)

  第55届韩国电影大钟奖(2018)
  最佳影片(提名)
  最佳导演(提名) 金容华
  最佳企划(提名)
  最佳剪辑(提名)
  最佳美术(提名)
  最佳服装(提名)
  最佳技术奖

  第5届豆瓣电影年度榜单(2018)
  评分最高的韩国电影(提名)
Video
ID                                       : 1
Format                                   : AVC
Format/Info                              : Advanced Video Codec
Format settings                          : CABAC / 5 Ref Frames
Format settings, CABAC                   : Yes
Format settings, Reference frames        : 5 frames
Codec ID                                 : V_MPEG4/ISO/AVC
Duration                                 : 2 h 21 min
Bit rate                                 : 8 437 kb/s
Width                                    : 1 920 pixels
Height                                   : 808 pixels
Display aspect ratio                     : 2.40:1
Frame rate mode                          : Constant
Frame rate                               : 24.000 FPS
Color space                              : YUV
Chroma subsampling                       : 4:2:0
Bit depth                                : 8 bits
Scan type                                : Progressive
Bits/(Pixel*Frame)                       : 0.227
Stream size                              : 8.34 GiB (85%)
Writing library                          : x264 core 157 r2935 545de2f
Encoding settings                        : cabac=1 / ref=5 / deblock=1:-3:-3 / analyse=0x3:0x133 / me=umh / subme=9 / psy=1 / psy_rd=1.00:0.00 / mixed_ref=1 / me_range=16 / chroma_me=1 / trellis=2 / 8x8dct=1 / cqm=0 / deadzone=21,11 / fast_pskip=0 / chroma_qp_offset=-2 / threads=12 / lookahead_threads=1 / sliced_threads=0 / nr=0 / decimate=1 / interlaced=0 / bluray_compat=0 / constrained_intra=0 / bframes=3 / b_pyramid=2 / b_adapt=1 / b_bias=0 / direct=3 / weightb=1 / open_gop=0 / weightp=2 / keyint=240 / keyint_min=24 / scenecut=40 / intra_refresh=0 / rc_lookahead=50 / rc=2pass / mbtree=1 / bitrate=8437 / ratetol=1.0 / qcomp=0.60 / qpmin=0 / qpmax=69 / qpstep=4 / cplxblur=20.0 / qblur=0.5 / ip_ratio=1.40 / aq=1:1.00
Language                                 : English
Default                                  : Yes
Forced                                   : No

Audio
ID                                       : 2
Format                                   : DTS
Format/Info                              : Digital Theater Systems
Codec ID                                 : A_DTS
Duration                                 : 2 h 21 min
Bit rate mode                            : Constant
Bit rate                                 : 1 509 kb/s
Channel(s)                               : 6 channels
Channel layout                           : C L R Ls Rs LFE
Sampling rate                            : 48.0 kHz
Frame rate                               : 93.750 FPS (512 SPF)
Bit depth                                : 24 bits
Compression mode                         : Lossy
Stream size                              : 1.49 GiB (15%)
Language                                 : Korean
Default                                  : Yes
Forced                                   : No

Text
ID                                       : 3
Format                                   : UTF-8
Codec ID                                 : S_TEXT/UTF8
Codec ID/Info                            : UTF-8 Plain Text
Duration                                 : 2 h 16 min
Bit rate                                 : 49 b/s
Count of elements                        : 1667
Stream size                              : 49.8 KiB (0%)
Title                                    : English
Language                                 : English
Default                                  : Yes
Forced                                   : Yes

Menu
00:00:00.000                             : en:00:00:00.000
00:08:05.417                             : en:00:08:05.417
00:12:52.917                             : en:00:12:52.917
00:20:54.042                             : en:00:20:54.042
00:29:28.500                             : en:00:29:28.500
00:37:46.458                             : en:00:37:46.458
00:47:45.500                             : en:00:47:45.500
00:58:13.625                             : en:00:58:13.625
01:06:16.625                             : en:01:06:16.625
01:15:11.542                             : en:01:15:11.542
01:24:58.958                             : en:01:24:58.958
01:33:57.375                             : en:01:33:57.375
01:45:24.792                             : en:01:45:24.792
01:56:04.583                             : en:01:56:04.583
02:14:13.583                             : en:02:14:13.583




                                                                                                                                                                                                        
                                                                                                                                                                                                                                                                                                                                                                                                                                                                                                                                                                         25edf7ce0b620701ca70624fff29a5ba.zip (49.97 KB, 下载次数: 0)

回复

使用道具 举报

小黑屋|百度云资源论坛 |网站地图

本网站所有资源来自网络,如无意中侵犯了您的权益,请发邮件至 [email protected],立即清除相关链接

GMT+8, 2020-8-4 08:06 , Processed in 0.109679 second(s), 23 queries .

Powered by Discuz! X3.2

© 2001-2013 Comsenz Inc.

快速回复 返回顶部 返回列表