百度云资源论坛

 找回密码
 立即注册
搜索

魔偶奇谭:至小帝国 Puppet.Master.The.Littlest.Reich.2018.1080p.BluRay....

[复制链接]
百度云资源 发表于 2020-7-26 11:05:48 | 显示全部楼层 |阅读模式
帖子完整标题:魔偶奇谭:至小帝国 Puppet.Master.The.Littlest.Reich.2018.1080p.BluRay.x264.DTS-CHD 4.66GB




◎译  名 魔偶奇谭:至小帝国 / Puppet Master: The Little Reich / 魔偶奇谭12
◎片  名 Puppet Master: The Little Reich
◎年  代 2018
◎产  地 美国
◎类  别 恐怖
◎语  言 英语
◎上映日期 2018(美国)
◎IMDb评分  5.4/10 from 3202 users
◎片  长 84分钟
◎导  演 Sonny Laguna / Tommy Wiklund
◎编  剧 S·克雷格·扎勒 S. Craig Zahler / 查尔斯·班德 Charles Band / Kenneth J. Hall
◎主  演 Thomas Lennon
       Michael Paré
       Charlyne Yi
       内尔森·富兰克林 Nelson Franklin
       巴巴拉·克兰普顿 Barbara Crampton
       Skeeta Jenkins
       珍妮·佩利塞尔 Jenny Pellicer
       乌多·基尔 Udo Kier
       Anne Beyer


◎标  签 恐怖 | 美国 | 血腥 | 惊悚 | 2018 | 血腥&CULT | cult | 美国电影

◎简  介   

  讲述漫画家Edgar在离婚后搬回家与父母同住,在他哥哥以前的房间里发现了一个魔偶,他于是动心想去纪念Toulon谋杀3 0周年的集会上卖掉它。当他和新女友Ashley一起到达后,发现并不是只有他们想卖掉木偶,所有的木偶都活了过来,步步紧逼,向那些少数名族下手。 虽然属于魔偶系列,这部至小帝国却和1968年的《活死人之夜》很类似,在室内如一家小旅馆里展开情节,游客和住户必须群起而攻之。Edgar的独白告诉观众,为什么Toulon要设计这些木偶,他们很小,却极易在最不可能的情况下击垮你。
  影片让我们真实面对来自现实世界的恐惧,还构建了一个虚拟架构,让观众能置身在自己幻想的暴力世界里。
Video
ID                                       : 1
Format                                   : AVC
Format/Info                              : Advanced Video Codec
Format settings                          : CABAC / 5 Ref Frames
Format settings, CABAC                   : Yes
Format settings, ReFrames                : 5 frames
Codec ID                                 : V_MPEG4/ISO/AVC
Duration                                 : 1 h 29 min
Bit rate                                 : 5 899 kb/s
Width                                    : 1 920 pixels
Height                                   : 804 pixels
Display aspect ratio                     : 2.40:1
Frame rate mode                          : Constant
Frame rate                               : 23.976 (24000/1001/189150) FPS
Color space                              : YUV
Chroma subsampling                       : 4:2:0
Bit depth                                : 8 bits
Scan type                                : Progressive
Bits/(Pixel*Frame)                       : 0.159
Stream size                              : 3.71 GiB (80%)
Writing library                          : x264 core 155 r2893 b00bcaf
Encoding settings                        : cabac=1 / ref=5 / deblock=1:-3:-3 / analyse=0x3:0x113 / me=umh / subme=10 / psy=1 / psy_rd=1.00:0.05 / mixed_ref=1 / me_range=48 / chroma_me=1 / trellis=2 / 8x8dct=1 / cqm=0 / deadzone=21,11 / fast_pskip=0 / chroma_qp_offset=-2 / threads=18 / lookahead_threads=3 / sliced_threads=0 / nr=0 / decimate=1 / interlaced=0 / bluray_compat=0 / constrained_intra=0 / bframes=8 / b_pyramid=2 / b_adapt=2 / b_bias=0 / direct=3 / weightb=1 / open_gop=0 / weightp=2 / keyint=250 / keyint_min=23 / scenecut=40 / intra_refresh=0 / rc_lookahead=40 / rc=crf / mbtree=0 / crf=18.0 / qcomp=0.60 / qpmin=0 / qpmax=69 / qpstep=4 / vbv_maxrate=50000 / vbv_bufsize=45000 / crf_max=0.0 / nal_hrd=none / filler=0 / ip_ratio=1.40 / pb_ratio=1.30 / aq=3:1.00
Default                                  : Yes
Forced                                   : No
Color range                              : Limited
Matrix coefficients                      : BT.709

Audio
ID                                       : 2
Format                                   : DTS
Format/Info                              : Digital Theater Systems
Codec ID                                 : A_DTS
Duration                                 : 1 h 29 min
Bit rate mode                            : Constant
Bit rate                                 : 1 509 kb/s
Channel(s)                               : 6 channels
Channel positions                        : Front: L C R, Side: L R, LFE
Sampling rate                            : 48.0 kHz
Frame rate                               : 93.750 FPS (512 SPF)
Bit depth                                : 24 bits
Compression mode                         : Lossy
Stream size                              : 971 MiB (20%)
Language                                 : English
Default                                  : Yes
Forced                                   : No

Text
ID                                       : 3
Format                                   : UTF-8
Codec ID                                 : S_TEXT/UTF8
Codec ID/Info                            : UTF-8 Plain Text
Duration                                 : 1 h 29 min
Bit rate                                 : 51 b/s
Count of elements                        : 1210
Stream size                              : 33.7 KiB (0%)
Language                                 : English
Default                                  : Yes
Forced                                   : No

Menu
00:00:00.000                             : en:00:00:00.000
00:10:32.590                             : en:00:10:32.590
00:16:33.284                             : en:00:16:33.284
00:25:21.353                             : en:00:25:21.353
00:37:01.302                             : en:00:37:01.302
00:44:12.525                             : en:00:44:12.525
00:56:23.338                             : en:00:56:23.338
01:00:37.342                             : en:01:00:37.342
01:16:52.858                             : en:01:16:52.858
01:25:33.128                             : en:01:25:33.128




                                                                                                                                                                                                        
                                                                                                                                                                                                                                                                                                                                                                                                                                                                                                                                                                                                                                                                                                                                                                                                                711ecc361f8aab51a8541ecbb8352787.zip (93.88 KB, 下载次数: 0)

回复

使用道具 举报

小黑屋|百度云资源论坛 |网站地图

本网站所有资源来自网络,如无意中侵犯了您的权益,请发邮件至 [email protected],立即清除相关链接

GMT+8, 2020-8-4 04:13 , Processed in 0.101377 second(s), 23 queries .

Powered by Discuz! X3.2

© 2001-2013 Comsenz Inc.

快速回复 返回顶部 返回列表