百度云资源论坛

 找回密码
 立即注册
搜索

消音器/沉默者 Silencer.2018.1080p.BluRay.x264.DTS-CHD 6.85GB

[复制链接]
百度云资源 发表于 2020-7-26 11:05:48 | 显示全部楼层 |阅读模式
帖子完整标题:消音器/沉默者 Silencer.2018.1080p.BluRay.x264.DTS-CHD 6.85GB




◎译  名 消音器 / 沉默者
◎片  名 Silencer
◎年  代 2018
◎产  地 美国
◎类  别 动作 / 惊悚
◎语  言 英语
◎上映日期 2018-09-04(美国)
◎IMDb评分  3.9/10 from 912 users
◎片  长 88分钟
◎导  演 蒂莫西·伍德沃 Timothy Woodward Jr.
◎编  剧 Sean Mick
◎主  演 丹尼·特雷霍 Danny Trejo
       约翰尼·梅辛纳 Johnny Messner
       罗伯特·拉萨多 Robert LaSardo
       Kelly Leigh
       查克·林德尔 Chuck Liddell
       蒂托·奥蒂兹 Tito Ortiz
       Heather Johansen
       妮琪·李 Nikki Leigh
       艾瑞克·奥德 Erik Aude
       Edwin Modlin II
       Alexa Niemi
       Marlene Marquez
       Mike Ferguson
       Sofia Esmaili


◎标  签 动作 | 美国 | 犯罪 | 美国电影 | 2018 | 剧情 | 电影 | 霉菌烂片

◎简  介   

  讲述一名退休的杀手,无奈之下只能重操旧业,用上以往的杀戮技能,跟曾经的雇主大战一场...
Video
ID                                       : 1
Format                                   : AVC
Format/Info                              : Advanced Video Codec
Format settings                          : CABAC / 4 Ref Frames
Format settings, CABAC                   : Yes
Format settings, ReFrames                : 4 frames
Codec ID                                 : V_MPEG4/ISO/AVC
Duration                                 : 1 h 28 min
Bit rate                                 : 9 615 kb/s
Width                                    : 1 920 pixels
Height                                   : 816 pixels
Display aspect ratio                     : 2.35:1
Frame rate mode                          : Constant
Frame rate                               : 23.976 (24000/1001/189150) FPS
Color space                              : YUV
Chroma subsampling                       : 4:2:0
Bit depth                                : 8 bits
Scan type                                : Progressive
Bits/(Pixel*Frame)                       : 0.256
Stream size                              : 5.92 GiB (86%)
Writing library                          : x264 core 155 r2867+74 66b5600 t_mod_Custom_2 [1 X86_64]
Encoding settings                        : cabac=1 / ref=4 / deblock=1:-3:-3 / analyse=0x3:0x113 / me=umh / subme=10 / psy=1 / fade_compensate=0.00 / psy_rd=0.90:0.10 / mixed_ref=1 / me_range=48 / chroma_me=1 / trellis=2 / 8x8dct=1 / cqm=0 / deadzone=21,11 / fast_pskip=0 / chroma_qp_offset=-2 / threads=18 / lookahead_threads=3 / sliced_threads=0 / nr=0 / decimate=1 / interlaced=0 / bluray_compat=0 / constrained_intra=0 / fgo=0 / bframes=8 / b_pyramid=2 / b_adapt=2 / b_bias=0 / direct=3 / weightb=1 / open_gop=0 / weightp=2 / keyint=250 / keyint_min=23 / scenecut=40 / intra_refresh=0 / rc_lookahead=40 / rc=crf / mbtree=0 / crf=19.0000 / qcomp=0.70 / qpmin=0:0:0 / qpmax=69:69:69 / qpstep=4 / vbv_maxrate=35000 / vbv_bufsize=35000 / crf_max=0.0 / nal_hrd=none / filler=0 / ip_ratio=1.40 / pb_ratio=1.30 / aq=3:0.90 / aq-sensitivity=10.00 / aq-factor=1.00:1.00:1.00 / aq2=0 / aq3=2:[0.50:0.50]:[0.50:0.50]:[0.50:0.50]:[0.50:0.50] / aq3-sensitivity=10.00 / aq3-factor=[1.00:1.00]:[1.00:1.00]:[1.00:1.00] / aq3-boundary=192:64:24
Language                                 : English
Default                                  : Yes
Forced                                   : No
Color range                              : Limited
Matrix coefficients                      : BT.709

Audio
ID                                       : 2
Format                                   : DTS
Format/Info                              : Digital Theater Systems
Codec ID                                 : A_DTS
Duration                                 : 1 h 28 min
Bit rate mode                            : Constant
Bit rate                                 : 1 509 kb/s
Channel(s)                               : 6 channels
Channel positions                        : Front: L C R, Side: L R, LFE
Sampling rate                            : 48.0 kHz
Frame rate                               : 93.750 FPS (512 SPF)
Bit depth                                : 24 bits
Compression mode                         : Lossy
Stream size                              : 951 MiB (14%)
Language                                 : English
Default                                  : Yes
Forced                                   : No

Menu
00:00:00.000                             : en:00:00:00.000
00:11:42.452                             : en:00:11:42.452
00:23:48.177                             : en:00:23:48.177
00:34:15.595                             : en:00:34:15.595
00:45:17.131                             : en:00:45:17.131
00:57:40.999                             : en:00:57:40.999
01:10:16.212                             : en:01:10:16.212
01:21:10.657                             : en:01:21:10.657




                                                                                                                                                                                                        
                                                                                                                                                                                                                                                                                                                                                                                                                                                                                                                                                                              ebbef519d71d4da5a40fe8c4f9601c10.zip (69.11 KB, 下载次数: 0)

回复

使用道具 举报

小黑屋|百度云资源论坛 |网站地图

本网站所有资源来自网络,如无意中侵犯了您的权益,请发邮件至 [email protected],立即清除相关链接

GMT+8, 2020-8-4 06:52 , Processed in 0.099582 second(s), 23 queries .

Powered by Discuz! X3.2

© 2001-2013 Comsenz Inc.

快速回复 返回顶部 返回列表