百度云资源论坛

 找回密码
 立即注册
搜索

夜以继日 Asako.I.and.II.2018.1080p.BluRay.x264-USURY 13.42GB

[复制链接]
百度云电影 发表于 2020-7-24 07:45:20 | 显示全部楼层 |阅读模式
帖子完整标题:夜以继日 Asako.I.and.II.2018.1080p.BluRay.x264-USURY 13.42GB




◎译  名 夜以继日 / Asako I & II / Netemo sametemo / 不论睡着或醒着 / 睡了也好,醒来也好(港) / 睡着也好醒来也罢(台) / 睡着吻别醒来抱拥 / 睡着吻别,醒来抱拥(港)
◎片  名 寝ても覚めても
◎年  代 2018
◎产  地 日本 / 法国
◎类  别 剧情 / 爱情
◎语  言 日语
◎上映日期 2018-05-14(戛纳电影节) / 2018-09-01(日本)
◎片  长 119分钟
◎导  演 滨口龙介 Ry?suke Hamaguchi
◎编  剧 田中幸子 Sachiko Tanaka / 滨口龙介 Ry?suke Hamaguchi / 柴崎友香 Tomoka Shibasaki
◎主  演 东出昌大 Masahiro Higashide
       唐田英里佳 Erika Karata
       濑户康史 Koji Seto
       山下莉绪 Rio Yamashita
       伊藤沙莉 Sairi It?
       渡边大知 Daichi Watanabe
       仲本工事 K?ji Nakamoto
       田中美佐子 Tanaka Misako


◎标  签 日本 | 爱情 | 2018 | 文艺 | 剧情 | 戛纳 | 人性 | 小说改编

◎简  介   

  自从初恋失踪以后,朝子便失去了生活的目标。两年后,她遇到了一个外形与恋人几乎一模一样的男人。她被这种奇妙的相似所吸引,却逐渐感受到这个年轻男人拥有截然不同的性格。

◎获奖情况  

  第71届戛纳电影节(2018)
  主竞赛单元 金棕榈奖(提名) 滨口龙介

  第13届亚洲电影大奖(2019)
  最佳新演员(提名) 唐田英里佳

  第61届日本电影蓝丝带奖(2019)
  年度十佳日本电影

  第43届报知映画赏(2018)
  最佳影片(提名) 滨口龙介

  第6届豆瓣电影年度榜单(2019)
  评分最高的日本电影(提名)
  评分最高的爱情片(提名)
Video
ID                                       : 1
Format                                   : AVC
Format settings                          : CABAC / 4 Ref Frames
Format settings, CABAC                   : Yes
Format settings, Reference frames        : 4 frames
Codec ID                                 : V_MPEG4/ISO/AVC
Duration                                 : 1 h 59 min
Bit rate                                 : 12.8 Mb/s
Width                                    : 1 800 pixels
Height                                   : 1 080 pixels
Display aspect ratio                     : 5:3
Frame rate mode                          : Constant
Frame rate                               : 23.976 (24000/1001/189150) FPS
Color space                              : YUV
Chroma subsampling                       : 4:2:0
Bit depth                                : 8 bits
Scan type                                : Progressive
Bits/(Pixel*Frame)                       : 0.275
Stream size                              : 10.7 GiB (80%)
Writing library                          : x264 core 160 r3000 33f9e14
Encoding settings                        : cabac=1 / ref=4 / deblock=1:-3:-3 / analyse=0x3:0x133 / me=umh / subme=10 / psy=1 / psy_rd=1.00:0.15 / mixed_ref=1 / me_range=24 / chroma_me=1 / trellis=2 / 8x8dct=1 / cqm=0 / deadzone=21,11 / fast_pskip=1 / chroma_qp_offset=-3 / threads=18 / lookahead_threads=3 / sliced_threads=0 / nr=0 / decimate=1 / interlaced=0 / bluray_compat=0 / constrained_intra=0 / bframes=8 / b_pyramid=2 / b_adapt=2 / b_bias=0 / direct=3 / weightb=1 / open_gop=0 / weightp=2 / keyint=250 / keyint_min=23 / scenecut=40 / intra_refresh=0 / rc_lookahead=60 / rc=crf / mbtree=1 / crf=17.0 / qcomp=0.60 / qpmin=0 / qpmax=69 / qpstep=4 / ip_ratio=1.40 / aq=3:0.60
Language                                 : English
Default                                  : Yes
Forced                                   : No
Color range                              : Limited
Matrix coefficients                      : BT.709

Audio
ID                                       : 2
Format                                   : DTS XLL
Format/Info                              : Digital Theater Systems
Commercial name                          : DTS-HD Master Audio
Codec ID                                 : A_DTS
Duration                                 : 1 h 59 min
Bit rate mode                            : Variable
Bit rate                                 : 3 204 kb/s
Channel(s)                               : 6 channels
Channel layout                           : C L R Ls Rs LFE
Sampling rate                            : 48.0 kHz
Frame rate                               : 93.750 FPS (512 SPF)
Bit depth                                : 16 bits
Compression mode                         : Lossless
Stream size                              : 2.68 GiB (20%)
Language                                 : Japanese
Default                                  : Yes
Forced                                   : No

Text #1
ID                                       : 3
Format                                   : UTF-8
Codec ID                                 : S_TEXT/UTF8
Codec ID/Info                            : UTF-8 Plain Text
Duration                                 : 1 h 59 min
Bit rate                                 : 35 b/s
Count of elements                        : 1201
Stream size                              : 30.9 KiB (0%)
Title                                    : English
Language                                 : English
Default                                  : Yes
Forced                                   : Yes

Text #2
ID                                       : 4
Format                                   : PGS
Muxing mode                              : zlib
Codec ID                                 : S_HDMV/PGS
Codec ID/Info                            : Picture based subtitle format used on BDs/HD-DVDs
Duration                                 : 1 h 59 min
Bit rate                                 : 8 573 b/s
Count of elements                        : 2404
Stream size                              : 7.36 MiB (0%)
Title                                    : English
Language                                 : English
Default                                  : No
Forced                                   : No

Menu
00:00:00.000                             : en:00:00:00.000
00:10:01.810                             : en:00:10:01.810
00:18:39.660                             : en:00:18:39.660
00:31:13.663                             : en:00:31:13.663
00:39:16.145                             : en:00:39:16.145
00:49:49.361                             : en:00:49:49.361
01:00:23.620                             : en:01:00:23.620
01:09:01.054                             : en:01:09:01.054
01:20:10.764                             : en:01:20:10.764
01:32:23.538                             : en:01:32:23.538
01:40:15.760                             : en:01:40:15.760
01:49:47.164                             : en:01:49:47.164




                                                                                                                                                                                                        
                                                                                                                                                                                                                                                                                                                         e01ba0a8a02d051c06a7e86511f84a06.zip (68.26 KB, 下载次数: 0)

回复

使用道具 举报

小黑屋|百度云资源论坛 |网站地图

本网站所有资源来自网络,如无意中侵犯了您的权益,请发邮件至 [email protected],立即清除相关链接

GMT+8, 2020-8-4 07:33 , Processed in 0.110747 second(s), 23 queries .

Powered by Discuz! X3.2

© 2001-2013 Comsenz Inc.

快速回复 返回顶部 返回列表