百度云资源论坛

 找回密码
 立即注册
搜索

除蚤武士 Flea-picking.Samurai.2018.JAPANESE.1080p.BluRay.x264.DTS-WiKi 9....

[复制链接]
百度云电影 发表于 2020-9-17 11:20:09 | 显示全部楼层 |阅读模式
帖子完整标题:除蚤武士 Flea-picking.Samurai.2018.JAPANESE.1080p.BluRay.x264.DTS-WiKi 9.75GB




◎译  名 除蚤武士/Flea-picking.Samurai/Nomitori samurai/蚤とり侍/陪睡大人(台)
◎片  名 のみとり侍
◎年  代 2018
◎产  地 日本
◎类  别 喜剧 / 情色
◎语  言 日语
◎上映日期 2018-05-18(日本)
◎片  长 110分钟
◎导  演 鹤桥康夫 Yasuo Tsuruhashi
◎编  剧 鹤桥康夫 Yasuo Tsuruhashi / 小松重男 Shigeo Komatsu
◎主  演 阿部宽 Hiroshi Abe
       寺岛忍 Shinobu Terajima
       丰川悦司 Etsushi Toyokawa
       斋藤工 Takumi Sait?
       风间杜夫 Morio Kazama
       大竹忍 Shinobu ?take
       前田敦子 Atsuko Maeda
       桂三枝 Sanshi Katsura
       笑福亭鹤光 Tsuruko Sh?fukutei
       福本莉子 Riko Fukumoto
       飞鸟凛 Rin Asuka

◎标  签 日本 | 喜剧 | 情色 | 荒诞 | 2018 | 古装 | 时代剧 | 小说改编

◎简  介

  改编自小松重男的小说《 蚤とり侍》,阿部宽饰演的武士因得罪了藩主而被流放为打着除猫蚤的名号实则向女顾客卖“肉”的“工口武士”小林宽之进。第一个客人小峯(寺岛忍饰)神似其亡妻,谁知才几分钟就被骂床技差,于是他下定决心磨炼起了床笫之术。丰川悦司饰演传授主人公取悦女性之道的妻管严的清兵 卫,前田敦子饰演清兵卫的妻子。斎藤工饰演阿部宽的邻居清贫却免费教书的私塾教师佐伯友之介
Video
ID                                       : 1
Format                                   : AVC
Format/Info                              : Advanced Video Codec
Format settings                          : CABAC / 5 Ref Frames
Format settings, CABAC                   : Yes
Format settings, ReFrames                : 5 frames
Codec ID                                 : V_MPEG4/ISO/AVC
Duration                                 : 1 h 49 min
Bit rate                                 : 11.2 Mb/s
Width                                    : 1 920 pixels
Height                                   : 806 pixels
Display aspect ratio                     : 2.40:1
Frame rate mode                          : Constant
Frame rate                               : 23.976 (24000/1001/189150) FPS
Color space                              : YUV
Chroma subsampling                       : 4:2:0
Bit depth                                : 8 bits
Scan type                                : Progressive
Bits/(Pixel*Frame)                       : 0.301
Stream size                              : 8.58 GiB (88%)
Writing library                          : x264 core 129 r2245+704+36 8e61944 tMod+MixAQ
Encoding settings                        : cabac=1 / ref=5 / deblock=1:-3:-3 / analyse=0x3:0x133 / me=umh / subme=11 / psy=1 / fade_compensate=0.00 / psy_rd=1.05:0.10 / mixed_ref=1 / me_range=64 / chroma_me=1 / trellis=2 / 8x8dct=1 / cqm=0 / deadzone=21,11 / fast_pskip=0 / chroma_qp_offset=-3 / threads=18 / lookahead_threads=3 / sliced_threads=0 / nr=0 / decimate=0 / interlaced=0 / bluray_compat=0 / constrained_intra=0 / fgo=0 / bframes=10 / b_pyramid=2 / b_adapt=2 / b_bias=0 / direct=3 / weightb=1 / open_gop=0 / weightp=2 / keyint=250 / keyint_min=23 / scenecut=40 / intra_refresh=0 / rc=2pass / mbtree=0 / bitrate=11176 / ratetol=1.0 / qcomp=0.70 / qpmin=0 / qpmax=69 / qpstep=4 / cplxblur=20.0 / qblur=0.5 / ip_ratio=1.40 / pb_ratio=1.30 / aq=1 / aq-strength=0.90 / aq-sensitivity=10.00 / aq-ifactor=1.00 / aq-pfactor=1.00 / aq-bfactor=1.00 / aq2=0
Language                                 : Japanese
Default                                  : Yes
Forced                                   : No

Audio
ID                                       : 2
Format                                   : DTS
Format/Info                              : Digital Theater Systems
Codec ID                                 : A_DTS
Duration                                 : 1 h 49 min
Bit rate mode                            : Constant
Bit rate                                 : 1 509 kb/s
Channel(s)                               : 6 channels
Channel layout                           : C L R Ls Rs LFE
Sampling rate                            : 48.0 kHz
Frame rate                               : 93.750 FPS (512 SPF)
Bit depth                                : 24 bits
Compression mode                         : Lossy
Stream size                              : 1.16 GiB (12%)
Language                                 : Japanese
Default                                  : Yes
Forced                                   : No

Text
ID                                       : 3
Format                                   : ASS
Codec ID                                 : S_TEXT/ASS
Codec ID/Info                            : Advanced Sub Station Alpha
Duration                                 : 1 h 49 min
Bit rate                                 : 86 b/s
Count of elements                        : 1295
Compression mode                         : Lossless
Stream size                              : 69.5 KiB (0%)
Language                                 : Chinese
Default                                  : Yes
Forced                                   : No

Menu
00:00:00.000                             : en:00:00:00.000
00:11:09.335                             : en:00:11:09.335
00:25:25.065                             : en:00:25:25.065
00:38:21.340                             : en:00:38:21.340
00:54:13.041                             : en:00:54:13.041
00:59:10.797                             : en:00:59:10.797
01:15:10.130                             : en:01:15:10.130
01:28:32.473                             : en:01:28:32.473
01:49:55.589                             : en:01:49:55.589




                                                                                                                                                                                                        
                                                                                                                                                                                                                                                                                                                                                                                                                                                                                    
f8f54a9ccf85ba7b6b6ab64587f8af4a.zip (99.01 KB, 下载次数: 0)

回复

使用道具 举报

小黑屋|百度云资源论坛 |网站地图

本网站所有资源来自网络,如无意中侵犯了您的权益,请发邮件至 [email protected],立即清除相关链接

GMT+8, 2021-1-25 21:04 , Processed in 0.096694 second(s), 23 queries .

Powered by Discuz! X3.2

© 2001-2013 Comsenz Inc.

快速回复 返回顶部 返回列表