百度云资源论坛

 找回密码
 立即注册
搜索

超时空同居 How.Long.Will.I.Love.U.2018.CHINESE.1080p.BluRay.x264-WiKi 11...

[复制链接]
百度云资源 发表于 2020-9-17 11:20:09 | 显示全部楼层 |阅读模式
帖子完整标题:超时空同居 How.Long.Will.I.Love.U.2018.CHINESE.1080p.BluRay.x264-WiKi 11.28GB




◎译  名 How Long Will I Love U/口袋宇宙
◎片  名 超时空同居
◎年  代 2018
◎产  地 中国大陆
◎类  别 喜剧 / 爱情 / 奇幻
◎语  言 汉语普通话
◎上映日期 2018-05-18(中国大陆)
◎片  长 101分钟
◎导  演 苏伦 Lun Su
◎编  剧 苏伦 Lun Su / 刘迟 Chi Liu
◎主  演 雷佳音 Jiayin Lei
       佟丽娅 Liya Tong
       张衣 Yi Zhang
       于和伟 Hewei Yu
       王正佳 Zhengjia Wang
       陶虹 Hong Tao
       李念 Nian Li
       李光洁 Guangjie Li
       杨玏 Le Yang
       范明 Ming Fan
       徐峥 Zheng Xu
       杨迪 Di Yang
       方龄 Ling Fang
       陈昊 Hao Chen

◎标  签 爱情 | 喜剧 | 搞笑 | 国产 | 奇幻 | 穿越 | 2018 | 中国大陆

◎简  介

  生活在2018年的大龄女青年谷小焦(佟丽娅 饰),梦想能够嫁一个能买得起她幼时豪宅的有钱人,却屡屡受挫,只能蜗居在一栋老居民楼里。生活在1999年的陆鸣(雷佳音 饰)手握着自己设计的宏伟蓝图,却始终找不到投资人,同时也面临重大的事业危机。奇怪的时刻来临了,失意的两个人回到家中居然发生了惊人的一幕,同一扇门关上后居然是两个时空的交汇点,两个不同时空的人相遇了,为了拯救自己的未来,两人共商大计,开启了幻想一夜暴富的一系列措施,引发了啼笑皆非的连锁反应。而他们不知道的是,两个时空的重叠是人为的操控,他们每走一步都会引发不可预知的结果,更要命的事,本来只是视对方为赚钱拍档的两人引发了爱的火花……

◎获奖情况

  第21届上海国际电影节 ?(2018)
  电影频道传媒大奖最受传媒关注女主角 佟丽娅
  电影频道传媒大奖最受传媒关注新人导演 苏伦
  电影频道传媒大奖(提名) 苏伦
  
  第17届中国电影华表奖 ?(2018)
  优秀女演员奖(提名) 佟丽娅
  优秀青年创作影片
  
  第26届北京大学生电影节 ?(2019)
  最佳编剧奖 苏伦
  最受大学生欢迎女演员 佟丽娅
Video
ID                                       : 1
Format                                   : AVC
Format settings                          : CABAC / 5 Ref Frames
Format settings, CABAC                   : Yes
Format settings, ReFrames                : 5 frames
Codec ID                                 : V_MPEG4/ISO/AVC
Duration                                 : 1 h 40 min
Bit rate                                 : 15.4 Mb/s
Width                                    : 1 920 pixels
Height                                   : 858 pixels
Display aspect ratio                     : 2.25:1
Frame rate mode                          : Constant
Frame rate                               : 24.000 FPS
Color space                              : YUV
Chroma subsampling                       : 4:2:0
Bit depth                                : 8 bits
Scan type                                : Progressive
Bits/(Pixel*Frame)                       : 0.390
Stream size                              : 10.8 GiB (96%)
Writing library                          : x264 core 155 r2867+82 a249126 t_mod_Custom_2
Encoding settings                        : cabac=1 / ref=5 / deblock=1:-3:-3 / analyse=0x3:0x133 / me=umh / subme=10 / psy=1 / fade_compensate=0.00 / psy_rd=1.00:0.00 / mixed_ref=1 / me_range=32 / chroma_me=1 / trellis=2 / 8x8dct=1 / cqm=0 / deadzone=21,11 / fast_pskip=0 / chroma_qp_offset=-2 / threads=24 / lookahead_threads=4 / sliced_threads=0 / nr=0 / decimate=0 / interlaced=0 / bluray_compat=0 / constrained_intra=0 / fgo=0 / bframes=8 / b_pyramid=2 / b_adapt=2 / b_bias=0 / direct=3 / weightb=1 / open_gop=0 / weightp=2 / keyint=250 / keyint_min=24 / scenecut=40 / intra_refresh=0 / rc_lookahead=60 / rc=crf / mbtree=0 / crf=16.9000 / qcomp=0.60 / qpmin=0:0:0 / qpmax=69:69:69 / qpstep=4 / vbv_maxrate=62500 / vbv_bufsize=78125 / crf_max=0.0 / nal_hrd=none / filler=0 / ip_ratio=1.25 / pb_ratio=1.15 / aq=3:0.80 / aq-sensitivity=10.00 / aq-factor=1.00:1.00:1.00 / aq2=0 / aq3=0
Default                                  : Yes
Forced                                   : No

Audio
ID                                       : 2
Format                                   : AC-3
Format/Info                              : Audio Coding 3
Commercial name                          : Dolby Digital
Codec ID                                 : A_AC3
Duration                                 : 1 h 40 min
Bit rate mode                            : Constant
Bit rate                                 : 640 kb/s
Channel(s)                               : 6 channels
Channel layout                           : L R C LFE Ls Rs
Sampling rate                            : 48.0 kHz
Frame rate                               : 31.250 FPS (1536 SPF)
Bit depth                                : 16 bits
Compression mode                         : Lossy
Stream size                              : 461 MiB (4%)
Language                                 : Chinese
Service kind                             : Complete Main
Default                                  : Yes
Forced                                   : No

Text #1
ID                                       : 3
Format                                   : UTF-8
Codec ID                                 : S_TEXT/UTF8
Codec ID/Info                            : UTF-8 Plain Text
Duration                                 : 1 h 34 min
Bit rate                                 : 49 b/s
Count of elements                        : 1454
Stream size                              : 34.4 KiB (0%)
Language                                 : English
Default                                  : Yes
Forced                                   : Yes

Text #2
ID                                       : 4
Format                                   : UTF-8
Codec ID                                 : S_TEXT/UTF8
Codec ID/Info                            : UTF-8 Plain Text
Duration                                 : 1 h 34 min
Bit rate                                 : 38 b/s
Count of elements                        : 1464
Stream size                              : 27.0 KiB (0%)
Title                                    : CHS
Language                                 : Chinese
Default                                  : No
Forced                                   : No

Text #3
ID                                       : 5
Format                                   : UTF-8
Codec ID                                 : S_TEXT/UTF8
Codec ID/Info                            : UTF-8 Plain Text
Duration                                 : 1 h 34 min
Bit rate                                 : 38 b/s
Count of elements                        : 1464
Stream size                              : 27.0 KiB (0%)
Title                                    : CHT
Language                                 : Chinese
Default                                  : No
Forced                                   : No

Menu
00:00:00.000                             : en:00:00:00.000
00:08:58.000                             : en:00:08:58.000
00:16:46.167                             : en:00:16:46.167
00:25:20.667                             : en:00:25:20.667
00:34:19.833                             : en:00:34:19.833
00:41:22.750                             : en:00:41:22.750
00:49:56.125                             : en:00:49:56.125
00:58:41.500                             : en:00:58:41.500
01:07:29.000                             : en:01:07:29.000
01:14:36.958                             : en:01:14:36.958
01:22:28.875                             : en:01:22:28.875
01:28:46.417                             : en:01:28:46.417






e94308e5d6e6678125c0d9e4e3a49aaf.zip (57.9 KB, 下载次数: 0)

回复

使用道具 举报

小黑屋|百度云资源论坛 |网站地图

本网站所有资源来自网络,如无意中侵犯了您的权益,请发邮件至 [email protected],立即清除相关链接

GMT+8, 2021-1-25 22:36 , Processed in 0.092536 second(s), 23 queries .

Powered by Discuz! X3.2

© 2001-2013 Comsenz Inc.

快速回复 返回顶部 返回列表