百度云资源论坛

 找回密码
 立即注册
搜索

铁血战士 The.Predator.2018.1080p.BluRay.x264.DTS-HD.MA.7.1-FGT 11.03GB

[复制链接]
百度云电影 发表于 2020-9-16 11:09:02 | 显示全部楼层 |阅读模式
帖子完整标题:铁血战士 The.Predator.2018.1080p.BluRay.x264.DTS-HD.MA.7.1-FGT 11.03GB




◎译  名 铁血战士/Predator 4/终极战士:掠夺者(台)/铁血战士:血兽进化(港)/铁血战士4/铁血战士新续集
◎片  名 The Predator
◎年  代 2018
◎产  地 美国,加拿大
◎类  别 动作 / 科幻 / 惊悚 / 冒险
◎语  言 英语,西班牙语
◎上映日期 2018-09-07(多伦多电影节) / 2018-09-14(美国) / 2018-10-26(中国大陆)
◎IMDb评分  5.3/10 from 113225 users
◎片  长 107分钟
◎导  演 沙恩·布莱克 Shane Black
◎编  剧 弗莱德·戴克尔 Fred Dekker / 沙恩·布莱克 Shane Black / 吉姆·托马斯 Jim Thomas / 约翰·托马斯 John Thomas
◎主  演 波伊德·霍布鲁克 Boyd Holbrook
       崔凡特·罗兹 Trevante Rhodes
       雅各布·特伦布莱 Jacob Tremblay
       科甘-迈克尔·凯 Keegan-Michael Key
       奥立薇娅·玛恩 Olivia Munn
       斯特林·K·布朗 Sterling K. Brown
       托马斯·简 Thomas Jane
       阿尔菲·艾伦 Alfie Allen
       奥古斯托·阿吉莱拉 Augusto Aguilera
       杰克·布塞 Jake Busey
       伊冯娜·斯特拉霍夫斯基 Yvonne Strahovski
       布赖恩·A·普林斯 Brian A. Prince
       麦克·多普德 Mike Dopud
       尼尔迈特 Niall Matter
       加里·切克 Gary Chalk
       艾米·阿内克 Emy Aneke
       弗雷泽·艾奇逊 Fraser Aitcheson
       简·波斯 Jan Bos
       洛奇林·莫罗 Lochlyn Munro
       叶芳华 Fran?oise Yip
       里斯·威廉姆斯 Rhys Williams
       萨奇·布洛克勒班克 Sage Brocklebank
       肖恩·O.罗伯茨 Sean O. Roberts
       柯林·科里根 Colin Corrigan
       帕特里克·萨邦圭 Patrick Sabongui
       弗雷泽·科比特 Fraser Corbett
       阿隆·克拉文 Aaron Craven
       安德鲁·詹金斯 Andrew Jenkins
       爱德华·詹姆斯·奥莫斯 Edward James Olmos
       杰·哈科特 Jay Hector
       史蒂夫·怀尔德 Steve Wilder

◎标  签 科幻 | 美国 | 外星人 | 动作 | 2018 | 暴力 | 惊悚 | 血腥

◎简  介

  一艘宇宙飞船坠落地球,正在执行军事任务的狙击手奎因·麦肯纳(波伊德·霍布鲁克 饰演)恰好遭遇外星人并发生激战,侥幸逃脱的他捡到了外星人的装备并寄回了家想再做他用。传说这种被称为铁血战士的外星人曾数次光临地球,使用各种残忍的手段对人类进行猎杀游戏。而这一次,奎因的儿子罗里 收到包裹后意外触发机关,引来了更强大的终极铁血战士降临地球。而想要阻止其大开杀戒的却是一群问题士兵和一位生物科学家凯茜·布拉克(奥立薇娅·玛恩 饰演)。事情却远不像他们想象的那样简单,一场铁血、终极铁血与人类之间的三方猎杀大战正式拉响!
Video
ID                                       : 1
Format                                   : AVC
Format/Info                              : Advanced Video Codec
Format settings                          : CABAC / 5 Ref Frames
Format settings, CABAC                   : Yes
Format settings, Reference frames        : 5 frames
Codec ID                                 : V_MPEG4/ISO/AVC
Duration                                 : 1 h 46 min
Bit rate                                 : 9 602 kb/s
Width                                    : 1 920 pixels
Height                                   : 808 pixels
Display aspect ratio                     : 2.40:1
Frame rate mode                          : Constant
Frame rate                               : 23.976 (24000/1001/189150) FPS
Color space                              : YUV
Chroma subsampling                       : 4:2:0
Bit depth                                : 8 bits
Scan type                                : Progressive
Bits/(Pixel*Frame)                       : 0.258
Stream size                              : 7.17 GiB (65%)
Title                                    : The.Predator.2018.1080p.BluRay.x264.DTS-HD.MA.7.1-FGT
Writing library                          : x264 core 157 r2935 545de2f
Encoding settings                        : cabac=1 / ref=5 / deblock=1:-3:-3 / analyse=0x3:0x133 / me=umh / subme=8 / psy=1 / psy_rd=1.00:0.00 / mixed_ref=1 / me_range=16 / chroma_me=1 / trellis=1 / 8x8dct=1 / cqm=0 / deadzone=21,11 / fast_pskip=0 / chroma_qp_offset=-2 / threads=25 / lookahead_threads=4 / sliced_threads=0 / nr=0 / decimate=1 / interlaced=0 / bluray_compat=0 / constrained_intra=0 / bframes=3 / b_pyramid=2 / b_adapt=1 / b_bias=0 / direct=3 / weightb=1 / open_gop=0 / weightp=2 / keyint=250 / keyint_min=23 / scenecut=40 / intra_refresh=0 / rc_lookahead=50 / rc=2pass / mbtree=1 / bitrate=9602 / ratetol=1.0 / qcomp=0.60 / qpmin=0 / qpmax=69 / qpstep=4 / cplxblur=20.0 / qblur=0.5 / vbv_maxrate=62500 / vbv_bufsize=78125 / nal_hrd=none / filler=0 / ip_ratio=1.40 / aq=1:1.00
Default                                  : Yes
Forced                                   : No

Audio
ID                                       : 2
Format                                   : DTS ES XLL
Format/Info                              : Digital Theater Systems
Commercial name                          : DTS-HD Master Audio
Codec ID                                 : A_DTS
Duration                                 : 1 h 46 min
Bit rate mode                            : Variable
Bit rate                                 : 5 095 kb/s
Channel(s)                               : 8 channels
Channel layout                           : C L R Ls Rs LFE Lb Rb
Sampling rate                            : 48.0 kHz
Frame rate                               : 93.750 FPS (512 SPF)
Bit depth                                : 24 bits
Compression mode                         : Lossless
Stream size                              : 3.81 GiB (34%)
Title                                    : The.Predator.2018.1080p.BluRay.x264.DTS-HD.MA.7.1-FGT
Language                                 : English
Default                                  : Yes
Forced                                   : No

Text #1
ID                                       : 3
Format                                   : UTF-8
Codec ID                                 : S_TEXT/UTF8
Codec ID/Info                            : UTF-8 Plain Text
Duration                                 : 2 s 461 ms
Bit rate                                 : 126 b/s
Count of elements                        : 1
Stream size                              : 39.0 Bytes (0%)
Title                                    : English-FORCED-SRT
Language                                 : English
Default                                  : Yes
Forced                                   : Yes

Text #2
ID                                       : 4
Format                                   : UTF-8
Codec ID                                 : S_TEXT/UTF8
Codec ID/Info                            : UTF-8 Plain Text
Duration                                 : 1 h 37 min
Bit rate                                 : 49 b/s
Count of elements                        : 1365
Stream size                              : 35.6 KiB (0%)
Title                                    : English-SRT
Language                                 : English
Default                                  : No
Forced                                   : No

Text #3
ID                                       : 5
Format                                   : PGS
Muxing mode                              : zlib
Codec ID                                 : S_HDMV/PGS
Codec ID/Info                            : Picture based subtitle format used on BDs/HD-DVDs
Duration                                 : 49 min 28 s
Bit rate                                 : 90 b/s
Count of elements                        : 10
Stream size                              : 33.0 KiB (0%)
Title                                    : English-FORCED-PGS
Language                                 : English
Default                                  : No
Forced                                   : No

Text #4
ID                                       : 6
Format                                   : PGS
Muxing mode                              : zlib
Codec ID                                 : S_HDMV/PGS
Codec ID/Info                            : Picture based subtitle format used on BDs/HD-DVDs
Duration                                 : 2 s 482 ms
Bit rate                                 : 108 kb/s
Count of elements                        : 2
Stream size                              : 32.7 KiB (0%)
Title                                    : English-PGS
Language                                 : English
Default                                  : No
Forced                                   : No

Text #5
ID                                       : 7
Format                                   : PGS
Muxing mode                              : zlib
Codec ID                                 : S_HDMV/PGS
Codec ID/Info                            : Picture based subtitle format used on BDs/HD-DVDs
Duration                                 : 1 h 38 min
Bit rate                                 : 66.4 kb/s
Count of elements                        : 3410
Stream size                              : 46.8 MiB (0%)
Title                                    : English-PGS
Language                                 : English
Default                                  : No
Forced                                   : No

Text #6
ID                                       : 8
Format                                   : PGS
Muxing mode                              : zlib
Codec ID                                 : S_HDMV/PGS
Codec ID/Info                            : Picture based subtitle format used on BDs/HD-DVDs
Duration                                 : 1 h 45 min
Bit rate                                 : 44.7 kb/s
Count of elements                        : 2316
Stream size                              : 33.7 MiB (0%)
Title                                    : Spanish-PGS
Language                                 : Spanish
Default                                  : No
Forced                                   : No

Text #7
ID                                       : 9
Format                                   : PGS
Muxing mode                              : zlib
Codec ID                                 : S_HDMV/PGS
Codec ID/Info                            : Picture based subtitle format used on BDs/HD-DVDs
Duration                                 : 1 h 36 min
Bit rate                                 : 143 b/s
Count of elements                        : 4
Stream size                              : 102 KiB (0%)
Title                                    : Spanish-FORCED-PGS
Language                                 : Spanish
Default                                  : No
Forced                                   : No

Text #8
ID                                       : 10
Format                                   : PGS
Muxing mode                              : zlib
Codec ID                                 : S_HDMV/PGS
Codec ID/Info                            : Picture based subtitle format used on BDs/HD-DVDs
Duration                                 : 1 h 45 min
Bit rate                                 : 44.3 kb/s
Count of elements                        : 2542
Stream size                              : 33.5 MiB (0%)
Title                                    : French-PGS
Language                                 : French
Default                                  : No
Forced                                   : No

Text #9
ID                                       : 11
Format                                   : PGS
Muxing mode                              : zlib
Codec ID                                 : S_HDMV/PGS
Codec ID/Info                            : Picture based subtitle format used on BDs/HD-DVDs
Duration                                 : 1 h 45 min
Bit rate                                 : 1 032 b/s
Count of elements                        : 42
Stream size                              : 799 KiB (0%)
Title                                    : French-FORCED_PGS
Language                                 : French
Default                                  : No
Forced                                   : No

Menu
00:00:00.000                             : en:Chapter 01
00:02:00.703                             : en:Chapter 02
00:08:32.678                             : en:Chapter 03
00:09:45.334                             : en:Chapter 04
00:13:47.326                             : en:Chapter 05
00:16:09.176                             : en:Chapter 06
00:17:36.430                             : en:Chapter 07
00:20:21.470                             : en:Chapter 08
00:25:01.750                             : en:Chapter 09
00:27:36.237                             : en:Chapter 10
00:31:09.951                             : en:Chapter 11
00:36:23.181                             : en:Chapter 12
00:38:00.653                             : en:Chapter 13
00:39:42.546                             : en:Chapter 14
00:44:34.713                             : en:Chapter 15
00:49:15.577                             : en:Chapter 16
00:53:18.820                             : en:Chapter 17
00:58:34.385                             : en:Chapter 18
00:59:58.928                             : en:Chapter 19
01:03:15.958                             : en:Chapter 20
01:06:36.701                             : en:Chapter 21
01:09:51.020                             : en:Chapter 22
01:12:26.550                             : en:Chapter 23
01:15:55.634                             : en:Chapter 24
01:18:52.352                             : en:Chapter 25
01:21:24.629                             : en:Chapter 26
01:23:08.942                             : en:Chapter 27
01:27:08.806                             : en:Chapter 28
01:30:55.116                             : en:Chapter 29
01:32:14.820                             : en:Chapter 30
01:35:08.160                             : en:Chapter 31
01:40:00.202                             : en:Chapter 32




                                                                                                                                                                                                        


b9bad6ecaa457fb82b540daa5614aeab.zip (56.63 KB, 下载次数: 0)

回复

使用道具 举报

小黑屋|百度云资源论坛 |网站地图

本网站所有资源来自网络,如无意中侵犯了您的权益,请发邮件至 [email protected],立即清除相关链接

GMT+8, 2020-9-29 09:21 , Processed in 0.103061 second(s), 23 queries .

Powered by Discuz! X3.2

© 2001-2013 Comsenz Inc.

快速回复 返回顶部 返回列表