百度云资源论坛

 找回密码
 立即注册
搜索

一个小忙/举手之劳 A.Simple.Favor.2018.1080p.BluRay.x264.DTS-HD.MA.5.1...

[复制链接]
百度云电影 发表于 2020-9-16 11:09:02 | 显示全部楼层 |阅读模式
帖子完整标题:一个小忙/举手之劳 A.Simple.Favor.2018.1080p.BluRay.x264.DTS-HD.MA.5.1-FGT 10.66GB




◎译  名 一个小忙/举手之劳/失踪网红(台)/小心帮忙(港)/简单帮个忙
◎片  名 A Simple Favor
◎年  代 2018
◎产  地 美国,加拿大
◎类  别 剧情 / 悬疑 / 犯罪
◎语  言 英语
◎上映日期 2018-09-14(美国)
◎IMDb评分  6.8/10 from 120112 users
◎片  长 117分钟
◎导  演 保罗·费格 Paul Feig
◎编  剧 杰西卡·沙泽尔 Jessica Sharzer / 达塞·贝尔 Darcey Bell
◎主  演 安娜·肯德里克 Anna Kendrick
       布蕾克·莱弗利 Blake Lively
       亨利·戈尔丁 Henry Golding
       伊恩·霍 Ian Ho
       乔舒亚·萨蒂尼 Joshua Satine
       格伦达·布拉甘扎 Glenda Braganza
       安德鲁·兰内斯 Andrew Rannells
       凯利·麦柯马克 Kelly McCormack
       阿帕纳·纳彻 Aparna Nancherla
       达斯汀·米利甘 Dustin Milligan
       丹妮埃拉·伯尔冈 Danielle Bourgon
       吉亚·桑德赫 Gia Sandhu
       鲁伯特·弗兰德 Rupert Friend
       诺林·古拉姆高斯 Noorin Gulamgaus
       巴希尔·萨拉赫丁 Bashir Salahuddin
       梅洛迪·约翰逊 Melody Johnson
       麦丽莎·奥尼尔 Melissa O'Neil
       埃里克·约翰逊 Eric Johnson
       琳达·卡德里尼 Linda Cardellini
       莎拉·贝克 Sarah Baker
       珍·斯马特 Jean Smart
       莱斯勒·唐纳森 Lesleh Donaldson
       克里斯·欧文斯 Chris Owens
       罗莎娜·斯科托 Rosanna Scotto
       多梅尼克·塞纳 Domenic Cina
       辛迪·戴 Cyndy Day

◎标  签 悬疑 | 犯罪 | 女性 | 美国 | 剧情 | 2018 | 喜剧 | 黑色幽默

◎简  介

  故事讲述一博主史蒂芬娜偶遇艾米丽,两人迅速成为好友,而当艾米丽请求史蒂芬娜帮助她接孩子时,艾米丽却突然消失了。一切似乎很不寻常。 本片根据达塞·贝尔同名小说改编。
Video
ID                                       : 1
Format                                   : AVC
Format/Info                              : Advanced Video Codec
Format settings                          : CABAC / 4 Ref Frames
Format settings, CABAC                   : Yes
Format settings, ReFrames                : 4 frames
Codec ID                                 : V_MPEG4/ISO/AVC
Duration                                 : 1 h 56 min
Bit rate                                 : 10.6 Mb/s
Width                                    : 1 920 pixels
Height                                   : 1 040 pixels
Display aspect ratio                     : 1.85:1
Frame rate mode                          : Constant
Frame rate                               : 23.976 (24000/1001/189150) FPS
Color space                              : YUV
Chroma subsampling                       : 4:2:0
Bit depth                                : 8 bits
Scan type                                : Progressive
Bits/(Pixel*Frame)                       : 0.220
Stream size                              : 8.60 GiB (81%)
Title                                    : A.Simple.Favor.2018.1080p.BluRay.x264.DTS-HD.MA.5.1-FGT
Writing library                          : x264 core 157 r2932+2 (master: 303c484 / tmod: 1b88d0a) [X86_64]
Encoding settings                        : cabac=1 / ref=4 / deblock=1:-3:-3 / analyse=0x3:0x113 / me=umh / subme=11 / psy=1 / psy_rd=1.05:0.05 / mixed_ref=1 / me_range=48 / chroma_me=1 / trellis=2 / 8x8dct=1 / cqm=0 / deadzone=6,6 / fast_pskip=0 / chroma_qp_offset=-3 / threads=26 / lookahead_threads=6 / sliced_threads=0 / nr=0 / decimate=0 / interlaced=0 / bluray_compat=0 / constrained_intra=0 / bframes=11 / b_pyramid=2 / b_adapt=2 / b_bias=0 / direct=3 / weightb=1 / open_gop=0 / weightp=2 / keyint=250 / keyint_min=23 / scenecut=40 / intra_refresh=0 / rc_lookahead=60 / rc=2pass / mbtree=0 / bitrate=10553 / ratetol=1.0 / qcomp=0.70 / qpmin=0 / qpmax=69 / qpstep=4 / cplxblur=20.0 / qblur=0.5 / vbv_maxrate=50000 / vbv_bufsize=62500 / nal_hrd=none / filler=0 / ip_ratio=1.10 / pb_ratio=1.10 / aq=3:0.75
Language                                 : English
Default                                  : Yes
Forced                                   : No

Audio
ID                                       : 2
Format                                   : DTS XLL
Format/Info                              : Digital Theater Systems
Commercial name                          : DTS-HD Master Audio
Codec ID                                 : A_DTS
Duration                                 : 1 h 56 min
Bit rate mode                            : Variable
Bit rate                                 : 2 492 kb/s
Channel(s)                               : 6 channels
Channel layout                           : C L R Ls Rs LFE
Sampling rate                            : 48.0 kHz
Frame rate                               : 93.750 FPS (512 SPF)
Bit depth                                : 16 bits
Compression mode                         : Lossless
Stream size                              : 2.03 GiB (19%)
Title                                    : A.Simple.Favor.2018.1080p.BluRay.x264.DTS-HD.MA.5.1-FGT
Language                                 : English
Default                                  : Yes
Forced                                   : No

Text #1
ID                                       : 3
Format                                   : UTF-8
Codec ID                                 : S_TEXT/UTF8
Codec ID/Info                            : UTF-8 Plain Text
Duration                                 : 1 h 50 min
Bit rate                                 : 91 b/s
Count of elements                        : 2278
Stream size                              : 73.9 KiB (0%)
Title                                    : English-SRT
Language                                 : English
Default                                  : Yes
Forced                                   : No

Text #2
ID                                       : 4
Format                                   : UTF-8
Codec ID                                 : S_TEXT/UTF8
Codec ID/Info                            : UTF-8 Plain Text
Duration                                 : 1 h 51 min
Bit rate                                 : 97 b/s
Count of elements                        : 2451
Stream size                              : 80.3 KiB (0%)
Title                                    : English-SDH-SRT
Language                                 : English
Default                                  : No
Forced                                   : No

Text #3
ID                                       : 5
Format                                   : PGS
Muxing mode                              : zlib
Codec ID                                 : S_HDMV/PGS
Codec ID/Info                            : Picture based subtitle format used on BDs/HD-DVDs
Duration                                 : 1 h 51 min
Bit rate                                 : 58.3 kb/s
Count of elements                        : 4902
Stream size                              : 46.7 MiB (0%)
Title                                    : English-PGS
Language                                 : English
Default                                  : No
Forced                                   : No

Menu
00:00:00.000                             : en:Chapter 01
00:06:33.684                             : en:Chapter 02
00:17:03.439                             : en:Chapter 03
00:26:24.165                             : en:Chapter 04
00:36:33.941                             : en:Chapter 05
00:46:30.329                             : en:Chapter 06
00:55:31.369                             : en:Chapter 07
01:08:43.661                             : en:Chapter 08
01:19:11.079                             : en:Chapter 09
01:27:40.588                             : en:Chapter 10
01:38:01.750                             : en:Chapter 11
01:50:20.572                             : en:Chapter 12




                                                                                                                                                                                                        
                                                                                                                                                                                                                                                                                                                                                                                                                                                                                                                                                                                                                                                                                                                              
eb9a22ee6884b2e684dcb0864a0ef1b7.zip (54.76 KB, 下载次数: 0)

回复

使用道具 举报

小黑屋|百度云资源论坛 |网站地图

本网站所有资源来自网络,如无意中侵犯了您的权益,请发邮件至 [email protected],立即清除相关链接

GMT+8, 2020-9-29 08:06 , Processed in 0.117458 second(s), 23 queries .

Powered by Discuz! X3.2

© 2001-2013 Comsenz Inc.

快速回复 返回顶部 返回列表