百度云资源论坛

 找回密码
 立即注册
搜索

节假日 The.Festival.2018.1080p.BluRay.x264.DTS-HD.MA.5.1-FGT 9.15GB

[复制链接]
帖子完整标题:节假日 The.Festival.2018.1080p.BluRay.x264.DTS-HD.MA.5.1-FGT 9.15GB




◎译  名 节假日/The Festival
◎片  名 The Festival
◎年  代 2018
◎产  地 英国
◎类  别 喜剧
◎语  言 英语
◎上映日期 2018-08-17(英国)
◎IMDb评分  5.8/10 from 5605 users
◎片  长 98分钟
◎导  演 艾恩·莫里斯 Iain Morris
◎主  演 乔·托马斯 Joe Thomas
       克劳迪娅·奥多尔蒂 Claudia O'Doherty
       杰梅奈·克莱门特 Jemaine Clement
       汉娜·托茵东 Hannah Tointon
       西奥·巴克利姆-比格斯 Theo Barklem-Biggs
       科特·耶格尔 Kurt Yaeger
       克里斯·吉尔 Chris Geere
       尼克·弗罗斯特 Nick Frost
       爱玛·里格比 Emma Rigby
       诺尔·费丁 Noel Fielding
       托尼·威 Tony Way
       艾德里安·鲁基斯 Adrian Lukis
       丹尼尔·厄根 Daniel Eghan
       乔恩·坎普林 Jon Campling
       保罗·布莱克维尔 Paul Blackwell
       马克·普雷斯顿 Mark Preston
       丹·柏曼 Dan Burman
       斯图尔特·戴维森 Stuart Davidson
       纪尧姆·里瓦德 Guillaume Rivaud

◎标  签 喜剧 | 英国 | 2018 | 音乐节 | 青春 | 英国电影 | 爆米花片 | 杰梅奈·克莱门特

◎简  介

  When Nick's girlfriend dumps him at graduation, he has a colossal meltdown in front of the entire university. He's convinced his life is over, but his best mate Shane has the perfect solution: three days at an epic music festival. With the help of "festival aficionado" and certified oddball Amy, Shane tries to get Nick to embrace the music, the mayhem and the mud. From the creators of the Inbetweeners comes The Festival, a movie about friendship, growing up, and going mad in a field.
Video
ID                                       : 1
Format                                   : AVC
Format settings                          : CABAC / 5 Ref Frames
Format settings, CABAC                   : Yes
Format settings, ReFrames                : 5 frames
Codec ID                                 : V_MPEG4/ISO/AVC
Duration                                 : 1 h 37 min
Bit rate                                 : 9 674 kb/s
Width                                    : 1 920 pixels
Height                                   : 808 pixels
Display aspect ratio                     : 2.40:1
Frame rate mode                          : Constant
Frame rate                               : 23.976 (24000/1001/189150) FPS
Color space                              : YUV
Chroma subsampling                       : 4:2:0
Bit depth                                : 8 bits
Scan type                                : Progressive
Bits/(Pixel*Frame)                       : 0.260
Stream size                              : 6.61 GiB (72%)
Title                                    : The.Festival.2018.1080p.BluRay.x264.DTS-HD.MA.5.1-FGT
Writing library                          : x264 core 157 r2935 545de2f
Encoding settings                        : cabac=1 / ref=5 / deblock=1:-3:-3 / analyse=0x3:0x113 / me=umh / subme=8 / psy=1 / psy_rd=1.00:0.00 / mixed_ref=1 / me_range=48 / chroma_me=1 / trellis=2 / 8x8dct=1 / cqm=0 / deadzone=21,11 / fast_pskip=1 / chroma_qp_offset=-2 / threads=25 / lookahead_threads=4 / sliced_threads=0 / nr=0 / decimate=1 / interlaced=0 / bluray_compat=0 / constrained_intra=0 / bframes=3 / b_pyramid=2 / b_adapt=2 / b_bias=0 / direct=3 / weightb=1 / open_gop=0 / weightp=2 / keyint=240 / keyint_min=24 / scenecut=40 / intra_refresh=0 / rc_lookahead=50 / rc=2pass / mbtree=1 / bitrate=9674 / ratetol=1.0 / qcomp=0.60 / qpmin=0 / qpmax=69 / qpstep=4 / cplxblur=20.0 / qblur=0.5 / ip_ratio=1.40 / aq=3:0.80
Default                                  : Yes
Forced                                   : No

Audio
ID                                       : 2
Format                                   : DTS XLL
Format/Info                              : Digital Theater Systems
Commercial name                          : DTS-HD Master Audio
Codec ID                                 : A_DTS
Duration                                 : 1 h 37 min
Bit rate mode                            : Variable
Bit rate                                 : 3 689 kb/s
Channel(s)                               : 6 channels
Channel layout                           : C L R Ls Rs LFE
Sampling rate                            : 48.0 kHz
Frame rate                               : 93.750 FPS (512 SPF)
Bit depth                                : 24 bits
Compression mode                         : Lossless
Stream size                              : 2.52 GiB (28%)
Title                                    : The.Festival.2018.1080p.BluRay.x264.DTS-HD.MA.5.1-FGT
Language                                 : English
Default                                  : Yes
Forced                                   : No

Text #1
ID                                       : 3
Format                                   : UTF-8
Codec ID                                 : S_TEXT/UTF8
Codec ID/Info                            : UTF-8 Plain Text
Duration                                 : 1 h 37 min
Bit rate                                 : 98 b/s
Count of elements                        : 2002
Stream size                              : 70.7 KiB (0%)
Title                                    : English-SRT
Language                                 : English
Default                                  : Yes
Forced                                   : No

Text #2
ID                                       : 4
Format                                   : UTF-8
Codec ID                                 : S_TEXT/UTF8
Codec ID/Info                            : UTF-8 Plain Text
Duration                                 : 1 h 37 min
Bit rate                                 : 103 b/s
Count of elements                        : 2112
Stream size                              : 74.2 KiB (0%)
Title                                    : English-SDH-SRT
Language                                 : English
Default                                  : No
Forced                                   : No

Text #3
ID                                       : 5
Format                                   : PGS
Muxing mode                              : zlib
Codec ID                                 : S_HDMV/PGS
Codec ID/Info                            : Picture based subtitle format used on BDs/HD-DVDs
Duration                                 : 1 h 37 min
Bit rate                                 : 54.4 kb/s
Count of elements                        : 4223
Stream size                              : 38.1 MiB (0%)
Title                                    : English-PGS
Language                                 : English
Default                                  : No
Forced                                   : No

Menu
00:00:00.000                             : en:Chapter 01
00:10:09.275                             : en:Chapter 02
00:19:11.150                             : en:Chapter 03
00:30:41.798                             : en:Chapter 04
00:40:45.943                             : en:Chapter 05
00:54:47.367                             : en:Chapter 06
01:07:06.064                             : en:Chapter 07
01:17:32.606                             : en:Chapter 08
01:34:16.943                             : en:Chapter 09




                                                                                                                                                                                                        
                                                                                                                                                                                                                                          
273f73d56fa2745ae9329df661bcb6a4.zip (92.99 KB, 下载次数: 0)

回复

使用道具 举报

小黑屋|百度云资源论坛 |网站地图

本网站所有资源来自网络,如无意中侵犯了您的权益,请发邮件至 [email protected],立即清除相关链接

GMT+8, 2020-9-23 15:10 , Processed in 0.109535 second(s), 23 queries .

Powered by Discuz! X3.2

© 2001-2013 Comsenz Inc.

快速回复 返回顶部 返回列表