百度云资源论坛

 找回密码
 立即注册
搜索

午夜阳光/日出前让恋爱开始 Midnight.Sun.2018.1080p.BluRay.x264.DTS...

[复制链接]
帖子完整标题:午夜阳光/日出前让恋爱开始 Midnight.Sun.2018.1080p.BluRay.x264.DTS-HD.MA.5.1-FGT 7.88GB




◎译  名 午夜阳光/日出前让恋爱开始(港)/真爱趁现在(台)/美版《太阳之歌》
◎片  名 Midnight Sun
◎年  代 2018
◎产  地 美国
◎类  别 剧情 / 爱情
◎语  言 英语
◎上映日期 2018-03-23(美国)
◎IMDb评分  6.6/10 from 21837 users
◎片  长 91分钟
◎导  演 斯科特·斯皮尔 Scott Speer
◎编  剧 埃里克·克斯汀 Eric Kirsten / 坂东贤治 Kenji Bando
◎主  演 贝拉·索恩 Bella Thorne
       帕特里克·施瓦辛格 Patrick Schwarzenegger
       罗伯·里格尔 Rob Riggle
       奎恩·谢法德 Quinn Shephard
       詹·格里芬 Jenn Griffin
       尼古拉斯·库姆 Nicholas Coombe
       提拉·斯考比 Tiera Skovbye
       保罗·麦克吉莱恩 Paul McGillion
       奥斯汀·奥比晶瓦 Austin Obiajunwa
       盖·克里斯蒂 Guy Christie
       艾娃·迪尤赫斯特 Ava Dewhurst
       奥黛丽·斯莫尔曼 Audrey Smallman
       杰奎琳·金 Jacqueline King
       基弗·奧莱利 Kiefer O'Reilly

◎标  签 爱情 | 青春 | 美国 | 感人 | 成长 | 文艺 | 电影 | 音乐

◎简  介

  凯蒂(贝拉·索恩 Bella Thorne 饰)自幼便患上了罕见的着色性干皮症,对于常人来说非常普通的紫外线,照在凯蒂的身上将会对她造成致命创伤。无奈之中,凯蒂只能在白天太阳还没落山的时候待在家中,靠着一把吉他弹奏谱曲为乐,但是一旦夜晚降临,凯蒂的时间就开始了,带着她心爱的吉他,凯蒂来到火车站,站在路边上自弹自唱。
  
  一天,一位名叫查理(帕特里克·施瓦辛格 Patrick Schwarzenegger 饰)的男子被凯蒂的歌声所吸引驻足观看,开朗活泼的凯蒂令他坠入了情网。让凯蒂没有想到的是,查理竟然是自己曾经暗恋过的人,为了能够抓住这段感情,凯蒂决定隐瞒自己的病情。
Video
ID                                       : 1
Format                                   : AVC
Format/Info                              : Advanced Video Codec
Format settings                          : CABAC / 5 Ref Frames
Format settings, CABAC                   : Yes
Format settings, ReFrames                : 5 frames
Codec ID                                 : V_MPEG4/ISO/AVC
Duration                                 : 1 h 31 min
Bit rate                                 : 8 709 kb/s
Width                                    : 1 920 pixels
Height                                   : 800 pixels
Display aspect ratio                     : 2.40:1
Frame rate mode                          : Constant
Frame rate                               : 23.976 FPS
Color space                              : YUV
Chroma subsampling                       : 4:2:0
Bit depth                                : 8 bits
Scan type                                : Progressive
Bits/(Pixel*Frame)                       : 0.236
Stream size                              : 5.59 GiB (71%)
Title                                    : Midnight.Sun.2018.1080p.BluRay.x264.DTS-HD.MA.5.1-FGT
Writing library                          : x264 core 155 r2901 7d0ff22
Encoding settings                        : cabac=1 / ref=5 / deblock=1:0:0 / analyse=0x3:0x133 / me=umh / subme=7 / psy=1 / psy_rd=1.00:0.00 / mixed_ref=1 / me_range=16 / chroma_me=1 / trellis=1 / 8x8dct=1 / cqm=0 / deadzone=21,11 / fast_pskip=0 / chroma_qp_offset=-2 / threads=25 / lookahead_threads=4 / sliced_threads=0 / nr=0 / decimate=1 / interlaced=0 / bluray_compat=0 / constrained_intra=0 / bframes=3 / b_pyramid=2 / b_adapt=1 / b_bias=0 / direct=1 / weightb=1 / open_gop=0 / weightp=2 / keyint=250 / keyint_min=23 / scenecut=40 / intra_refresh=0 / rc_lookahead=40 / rc=2pass / mbtree=1 / bitrate=8709 / ratetol=1.0 / qcomp=0.60 / qpmin=0 / qpmax=69 / qpstep=4 / cplxblur=20.0 / qblur=0.5 / ip_ratio=1.40 / aq=1:1.00
Language                                 : English
Default                                  : Yes
Forced                                   : No

Audio
ID                                       : 2
Format                                   : DTS
Format/Info                              : Digital Theater Systems
Format profile                           : MA / Core
Codec ID                                 : A_DTS
Duration                                 : 1 h 31 min
Bit rate mode                            : Variable / Constant
Bit rate                                 : 3 546 kb/s / 1 509 kb/s
Channel(s)                               : 6 channels
Channel positions                        : Front: L C R, Side: L R, LFE
Sampling rate                            : 48.0 kHz
Frame rate                               : 93.750 FPS (512 SPF)
Bit depth                                : 24 bits
Compression mode                         : Lossless / Lossy
Stream size                              : 2.28 GiB (29%)
Title                                    : Midnight.Sun.2018.1080p.BluRay.x264.DTS-HD.MA.5.1-FGT
Language                                 : English
Default                                  : Yes
Forced                                   : No

Text #1
ID                                       : 3
Format                                   : UTF-8
Codec ID                                 : S_TEXT/UTF8
Codec ID/Info                            : UTF-8 Plain Text
Duration                                 : 1 h 25 min
Bit rate                                 : 59 b/s
Count of elements                        : 1121
Stream size                              : 36.9 KiB (0%)
Title                                    : English-SRT
Language                                 : English
Default                                  : Yes
Forced                                   : No

Text #2
ID                                       : 4
Format                                   : PGS
Muxing mode                              : zlib
Codec ID                                 : S_HDMV/PGS
Codec ID/Info                            : Picture based subtitle format used on BDs/HD-DVDs
Duration                                 : 1 h 25 min
Bit rate                                 : 44.7 kb/s
Count of elements                        : 2645
Stream size                              : 27.3 MiB (0%)
Title                                    : English-PGS
Language                                 : English
Default                                  : No
Forced                                   : No

Text #3
ID                                       : 5
Format                                   : PGS
Muxing mode                              : zlib
Codec ID                                 : S_HDMV/PGS
Codec ID/Info                            : Picture based subtitle format used on BDs/HD-DVDs
Duration                                 : 1 h 30 min
Bit rate                                 : 33.0 kb/s
Count of elements                        : 2375
Stream size                              : 21.5 MiB (0%)
Title                                    : Spanish-PGS
Language                                 : Spanish
Default                                  : No
Forced                                   : No

Menu
00:00:00.000                             : en:00:00:00.000
00:04:00.991                             : en:00:04:00.991
00:09:32.113                             : en:00:09:32.113
00:14:23.988                             : en:00:14:23.988
00:20:52.585                             : en:00:20:52.585
00:24:16.205                             : en:00:24:16.205
00:30:14.187                             : en:00:30:14.187
00:34:13.760                             : en:00:34:13.760
00:37:46.806                             : en:00:37:46.806
00:42:48.357                             : en:00:42:48.357
00:47:28.095                             : en:00:47:28.095
00:53:23.450                             : en:00:53:23.450
00:57:34.242                             : en:00:57:34.242
01:01:31.813                             : en:01:01:31.813
01:04:15.393                             : en:01:04:15.393
01:07:27.210                             : en:01:07:27.210
01:10:06.077                             : en:01:10:06.077
01:15:36.866                             : en:01:15:36.866
01:19:39.775                             : en:01:19:39.775
01:26:21.176                             : en:01:26:21.176




                                                                                                                                                                                                        
                                                                                                                                                                                                                                                                                                                                                                                                                                                                                    
398a1e8417d27a88b5bad03c7da0fe1f.zip (80.27 KB, 下载次数: 0)

回复

使用道具 举报

小黑屋|百度云资源论坛 |网站地图

本网站所有资源来自网络,如无意中侵犯了您的权益,请发邮件至 [email protected],立即清除相关链接

GMT+8, 2020-9-23 15:35 , Processed in 0.104034 second(s), 26 queries .

Powered by Discuz! X3.2

© 2001-2013 Comsenz Inc.

快速回复 返回顶部 返回列表