百度云资源论坛

 找回密码
 立即注册
搜索

每一天/每一天 Every.Day.2018.1080p.BluRay.x264.DTS-CHD 8.62GB

[复制链接]
百度云资源 发表于 2020-9-16 11:09:02 | 显示全部楼层 |阅读模式
帖子完整标题:每一天/每一天 Every.Day.2018.1080p.BluRay.x264.DTS-CHD 8.62GB




◎译  名 每一天/每,一天(台)
◎片  名 Every Day
◎年  代 2018
◎产  地 美国
◎类  别 爱情 / 奇幻
◎语  言 英语
◎上映日期 2018-02-23(美国)
◎IMDb评分  6.4/10 from 17509 users
◎片  长 97分钟
◎导  演 迈克尔·苏克西 Michael Sucsy
◎编  剧 杰西·安德鲁斯 Jesse Andrews / 大卫·利维坦 David Levithan
◎主  演 安格瑞·赖斯 Angourie Rice
       贾斯蒂斯·史密斯 Justice Smith
       杰妮·罗斯 Jeni Ross
       卢卡斯·杰德·祖曼 Lucas Jade Zumann
       凯蒂·道格拉斯 Katie Douglas
       罗里·麦克唐纳 Rory McDonald
       雅各布·巴特朗 Jacob Batalon
       伊恩·亚历山大 Ian Alexander
       肖恩·琼斯 Sean Jones
       科林·福特 Colin Ford
       杰克·辛 Jake Sim
       妮科尔·洛 Nicole Law
       卡莉娜·埃文斯 Karena Evans
       欧文·泰格 Owen Teague
       汉娜·艾丽莎·理查德森 Hannah Alissa Richardson
       玛丽亚·贝罗 Maria Bello
       迈克尔·克莱姆 Michael Cram
       黛比·瑞恩 Debby Ryan
       查尔斯·万德瓦尔特 Charles Vandervaart
       阿曼达·阿库里 Amanda Arcuri
       基娜·巴斯蒂达斯 Keana Bastidas

◎标  签 爱情 | 奇幻 | 青春 | 美国 | 校园 | 2018 | 科幻 | 剧情

◎简  介

  安格瑞·赖斯将加盟出演米高梅制作的[每一天](Every Day,暂译)。该片由迈克尔·苏克西执导,故事根据大卫·利维坦同名小说改编,杰西·安德鲁斯担任编剧。影片讲述一名少女(赖斯饰)爱上了一种名叫A的物体,这种物体会每天在不同的少女少年体内寄居。该片将于下个月在多伦多拍摄。
Video
ID                                       : 1
Format                                   : AVC
Format/Info                              : Advanced Video Codec
Format settings                          : CABAC / 4 Ref Frames
Format settings, CABAC                   : Yes
Format settings, ReFrames                : 4 frames
Codec ID                                 : V_MPEG4/ISO/AVC
Duration                                 : 1 h 37 min
Bit rate                                 : 11.2 Mb/s
Width                                    : 1 920 pixels
Height                                   : 804 pixels
Display aspect ratio                     : 2.40:1
Frame rate mode                          : Constant
Frame rate                               : 23.976 (24000/1001/189150) FPS
Color space                              : YUV
Chroma subsampling                       : 4:2:0
Bit depth                                : 8 bits
Scan type                                : Progressive
Bits/(Pixel*Frame)                       : 0.301
Stream size                              : 7.59 GiB (88%)
Writing library                          : x264 core 155 r2867+74 66b5600 t_mod_Custom_2
Encoding settings                        : cabac=1 / ref=4 / deblock=1:-3:-3 / analyse=0x3:0x113 / me=umh / subme=10 / psy=1 / fade_compensate=0.00 / psy_rd=0.90:0.10 / mixed_ref=1 / me_range=48 / chroma_me=1 / trellis=2 / 8x8dct=1 / cqm=0 / deadzone=21,11 / fast_pskip=0 / chroma_qp_offset=-2 / threads=12 / lookahead_threads=2 / sliced_threads=0 / nr=0 / decimate=1 / interlaced=0 / bluray_compat=0 / constrained_intra=0 / fgo=0 / bframes=8 / b_pyramid=2 / b_adapt=2 / b_bias=0 / direct=3 / weightb=1 / open_gop=0 / weightp=2 / keyint=250 / keyint_min=23 / scenecut=40 / intra_refresh=0 / rc_lookahead=40 / rc=crf / mbtree=0 / crf=19.0000 / qcomp=0.70 / qpmin=0:0:0 / qpmax=69:69:69 / qpstep=4 / vbv_maxrate=35000 / vbv_bufsize=35000 / crf_max=0.0 / nal_hrd=none / filler=0 / ip_ratio=1.40 / pb_ratio=1.30 / aq=3:0.90 / aq-sensitivity=10.00 / aq-factor=1.00:1.00:1.00 / aq2=0 / aq3=2:[0.50:0.50]:[0.50:0.50]:[0.50:0.50]:[0.50:0.50] / aq3-sensitivity=10.00 / aq3-factor=[1.00:1.00]:[1.00:1.00]:[1.00:1.00] / aq3-boundary=192:64:24
Language                                 : English
Default                                  : Yes
Forced                                   : No
Color range                              : Limited
Matrix coefficients                      : BT.709

Audio
ID                                       : 2
Format                                   : DTS
Format/Info                              : Digital Theater Systems
Codec ID                                 : A_DTS
Duration                                 : 1 h 37 min
Bit rate mode                            : Constant
Bit rate                                 : 1 509 kb/s
Channel(s)                               : 6 channels
Channel positions                        : Front: L C R, Side: L R, LFE
Sampling rate                            : 48.0 kHz
Frame rate                               : 93.750 FPS (512 SPF)
Bit depth                                : 24 bits
Compression mode                         : Lossy
Stream size                              : 1.03 GiB (12%)
Language                                 : English
Default                                  : Yes
Forced                                   : No

Menu
00:00:00.000                             : en:00:00:00.000
00:11:35.445                             : en:00:11:35.445
00:20:57.756                             : en:00:20:57.756
00:29:04.826                             : en:00:29:04.826
00:40:40.438                             : en:00:40:40.438
00:50:18.807                             : en:00:50:18.807
01:00:08.939                             : en:01:00:08.939
01:10:28.391                             : en:01:10:28.391
01:20:18.689                             : en:01:20:18.689
01:31:52.132                             : en:01:31:52.132




                                                                                                                                                                                                        
                                                                                                                                                                                                                                          
a99111f86cd15a6ebaafa4019b239850.zip (87.61 KB, 下载次数: 0)

回复

使用道具 举报

小黑屋|百度云资源论坛 |网站地图

本网站所有资源来自网络,如无意中侵犯了您的权益,请发邮件至 [email protected],立即清除相关链接

GMT+8, 2020-10-30 08:45 , Processed in 0.108813 second(s), 23 queries .

Powered by Discuz! X3.2

© 2001-2013 Comsenz Inc.

快速回复 返回顶部 返回列表