百度云资源论坛

 找回密码
 立即注册
搜索

黑警/嗜好 Bent.2018.1080p.BluRay.x264-PSYCHD 6.58GB

[复制链接]
百度云资源 发表于 2020-9-16 11:09:02 | 显示全部楼层 |阅读模式
帖子完整标题:黑警/嗜好 Bent.2018.1080p.BluRay.x264-PSYCHD 6.58GB




◎译  名 黑警/嗜好
◎片  名 Bent
◎年  代 2018
◎产  地 西班牙,美国
◎类  别 惊悚
◎语  言 英语
◎上映日期 2018-03-09(美国)
◎IMDb评分  5.2/10 from 3825 users
◎片  长 96分钟
◎导  演 罗伯特·莫里斯克 Robert Moresco
◎编  剧 罗伯特·莫里斯克 Robert Moresco
◎主  演 卡尔·厄本 Karl Urban
       索菲娅·维加拉 Sofía Vergara
       安迪·加西亚 Andy Garcia
       托尼娅·科妮斯 Tonya Cornelisse
       约翰·芬 John Finn
       文森特·斯帕诺 Vincent Spano
       格蕾丝·拜尔斯 Grace Byers
       泰·比尔斯 Trai Byers
       大卫·柯克·特雷勒 David Kirk Traylor
       Charlotte Bradley
       埃琳娜·桑兹 Elena Sanz
       伊莎贝尔·瑟拉诺 Isabel Serrano
       杰登·伦德 Jayden Lund
       基娅拉·巴瑟尔曼 Chiara Bassermann
       帕特·阿桑蒂 Pat Asanti
       Silvio Pollio
       马尔科·潘克拉齐 Marco Pancrazi
       安德烈亚·布鲁斯基 Andrea Bruschi
       提摩西·马丁 Timothy Martin

◎标  签 犯罪 | 美国 | 动作 | 2018 | 警匪 | 剧情 | 电影 | 美国电影

◎简  介

  卡尔·厄本、索菲娅·维加拉、安迪·加西亚确定参演复仇题材影片[嗜好](Bent,暂译),博比·莫瑞斯克自编自导。片中丹尼·加拉格尔(厄本饰)是一名缉毒侦探,可他被人陷害最终身陷囹圄。出狱后的他旋即决定复仇。索菲娅·维加拉扮演一名政府人员,安迪·加西亚化身加拉格尔的导师。本片目前已于罗马开拍。
Video
ID                                       : 1
Format                                   : AVC
Format/Info                              : Advanced Video Codec
Format settings                          : CABAC / 5 Ref Frames
Format settings, CABAC                   : Yes
Format settings, Reference frames        : 5 frames
Codec ID                                 : V_MPEG4/ISO/AVC
Duration                                 : 1 h 36 min
Bit rate                                 : 8 216 kb/s
Width                                    : 1 920 pixels
Height                                   : 800 pixels
Display aspect ratio                     : 2.40:1
Frame rate mode                          : Constant
Frame rate                               : 23.976 (24000/1001/189150) FPS
Color space                              : YUV
Chroma subsampling                       : 4:2:0
Bit depth                                : 8 bits
Scan type                                : Progressive
Bits/(Pixel*Frame)                       : 0.223
Stream size                              : 5.41 GiB (82%)
Writing library                          : x264 core 155 r2901 7d0ff22
Encoding settings                        : cabac=1 / ref=5 / deblock=1:-3:-3 / analyse=0x3:0x113 / me=umh / subme=8 / psy=1 / psy_rd=1.00:0.00 / mixed_ref=1 / me_range=32 / chroma_me=1 / trellis=1 / 8x8dct=1 / cqm=0 / deadzone=21,11 / fast_pskip=1 / chroma_qp_offset=-2 / threads=24 / lookahead_threads=4 / sliced_threads=0 / nr=0 / decimate=1 / interlaced=0 / bluray_compat=0 / constrained_intra=0 / bframes=3 / b_pyramid=2 / b_adapt=2 / b_bias=0 / direct=3 / weightb=1 / open_gop=0 / weightp=2 / keyint=240 / keyint_min=24 / scenecut=40 / intra_refresh=0 / rc_lookahead=50 / rc=2pass / mbtree=1 / bitrate=8216 / ratetol=1.0 / qcomp=0.60 / qpmin=0 / qpmax=69 / qpstep=4 / cplxblur=20.0 / qblur=0.5 / ip_ratio=1.40 / aq=3:0.80
Default                                  : Yes
Forced                                   : No
Statistics Tags Issue                    : no_variable_data 1970-01-01 00:00:00 / no_variable_data 2010-02-22 21:41:29
FromStats_BitRate                        : 8213473
FromStats_Duration                       : 01:36:31.786000000
FromStats_FrameCount                     : 138864
FromStats_StreamSize                     : 5946335386

Audio
ID                                       : 2
Format                                   : DTS
Format/Info                              : Digital Theater Systems
Codec ID                                 : A_DTS
Duration                                 : 1 h 36 min
Bit rate mode                            : Constant
Bit rate                                 : 1 509 kb/s
Channel(s)                               : 6 channels
Channel layout                           : C L R Ls Rs LFE
Sampling rate                            : 48.0 kHz
Frame rate                               : 93.750 FPS (512 SPF)
Bit depth                                : 24 bits
Compression mode                         : Lossy
Stream size                              : 1.02 GiB (16%)
Language                                 : English
Default                                  : Yes
Forced                                   : No
Statistics Tags Issue                    : no_variable_data 1970-01-01 00:00:00 / no_variable_data 2010-02-22 21:41:29
FromStats_BitRate                        : 1508999
FromStats_Duration                       : 01:36:31.787000000
FromStats_FrameCount                     : 542980
FromStats_StreamSize                     : 1092475760

Text #1
ID                                       : 3
Format                                   : UTF-8
Codec ID                                 : S_TEXT/UTF8
Codec ID/Info                            : UTF-8 Plain Text
Language                                 : English
Default                                  : No
Forced                                   : No
Statistics Tags Issue                    : no_variable_data 1970-01-01 00:00:00 / no_variable_data 2010-02-22 21:41:29
FromStats_BitRate                        : 52
FromStats_Duration                       : 01:35:25.011000000
FromStats_FrameCount                     : 1208
FromStats_StreamSize                     : 37576

Text #2
ID                                       : 4
Format                                   : UTF-8
Codec ID                                 : S_TEXT/UTF8
Codec ID/Info                            : UTF-8 Plain Text
Title                                    : SDH
Language                                 : English
Default                                  : No
Forced                                   : No
Statistics Tags Issue                    : no_variable_data 1970-01-01 00:00:00 / no_variable_data 2010-02-22 21:41:29
FromStats_BitRate                        : 57
FromStats_Duration                       : 01:35:35.272000000
FromStats_FrameCount                     : 1397
FromStats_StreamSize                     : 41505

Menu
00:00:00.000                             : en:00:00:00.000
00:03:47.894                             : en:00:03:47.894
00:10:50.275                             : en:00:10:50.275
00:18:16.429                             : en:00:18:16.429
00:24:26.507                             : en:00:24:26.507
00:30:25.032                             : en:00:30:25.032
00:37:36.337                             : en:00:37:36.337
00:40:25.632                             : en:00:40:25.632
00:47:53.287                             : en:00:47:53.287
00:55:57.854                             : en:00:55:57.854
00:59:05.208                             : en:00:59:05.208
01:05:16.412                             : en:01:05:16.412
01:11:50.806                             : en:01:11:50.806
01:18:28.913                             : en:01:18:28.913
01:23:48.982                             : en:01:23:48.982
01:29:21.481                             : en:01:29:21.481




                                                                                                                                                                                                        
                                                                                                                                                                                                                                          
90bafc2db6d9bafdd64cd15d3aa75ad5.zip (133.13 KB, 下载次数: 0)

回复

使用道具 举报

小黑屋|百度云资源论坛 |网站地图

本网站所有资源来自网络,如无意中侵犯了您的权益,请发邮件至 [email protected],立即清除相关链接

GMT+8, 2020-10-30 09:15 , Processed in 0.095362 second(s), 23 queries .

Powered by Discuz! X3.2

© 2001-2013 Comsenz Inc.

快速回复 返回顶部 返回列表