百度云资源论坛

 找回密码
 立即注册
搜索

丽兹 Lizzie.2018.PROPER.1080p.BluRay.X264-AMIABLE 7.66GB

[复制链接]
百度云电影 发表于 2020-9-15 10:55:20 | 显示全部楼层 |阅读模式
帖子完整标题:丽兹 Lizzie.2018.PROPER.1080p.BluRay.X264-AMIABLE 7.66GB




◎译  名 丽兹/Lizzie Borden/丽兹·波顿/裸爱杀机(台)
◎片  名 Lizzie
◎年  代 2018
◎产  地 美国
◎类  别 剧情 / 传记 / 犯罪
◎语  言 英语
◎上映日期 2018-01-23(圣丹斯电影节) / 2018-09-14(美国)
◎IMDb评分  5.8/10 from 5937 users
◎片  长 105分钟
◎导  演 克雷格·麦克尼尔 Craig Macneill
◎编  剧 布赖斯·卡斯 Bryce Kass
◎主  演 科洛·塞维尼 Chlo? Sevigny
       克里斯汀·斯图尔特 Kristen Stewart
       丹尼斯·欧哈拉 Denis O'Hare
       金·迪肯斯 Kim Dickens
       费奥纳·肖 Fiona Shaw
       杰夫·帕里 Jeff Perry
       杰米·谢尔丹 Jamey Sheridan
       塔拉·奥克斯 Tara Ochs
       杰伊·胡古雷 Jay Huguley
       达林·库珀 Darin Cooper
       杰瑞米·赛克斯 Jeremy Sykes
       乔迪·马泽尔 Jody Matzer
       汤姆·森 Tom Thon

◎标  签 犯罪 | 美国 | 同性 | KristenStewart | 传记 | 悬疑 | 2018 | LGBT

◎简  介

  “杀人狂丽兹·波顿”故事将再现银幕,克里斯汀·斯图尔特、科洛·塞维尼有望加盟。1892年,波顿涉嫌杀害父亲与继母,却因柔弱形象与缺乏证据获无罪释放,引发争议。

◎获奖情况

  第34届圣丹斯电影节 ?(2018)
  评审团大奖剧情片(提名) 克雷格·麦克尼尔
Video
ID                                       : 1
Format                                   : AVC
Format/Info                              : Advanced Video Codec
Format settings                          : CABAC / 5 Ref Frames
Format settings, CABAC                   : Yes
Format settings, Reference frames        : 5 frames
Codec ID                                 : V_MPEG4/ISO/AVC
Duration                                 : 1 h 45 min
Bit rate                                 : 8 854 kb/s
Width                                    : 1 920 pixels
Height                                   : 808 pixels
Display aspect ratio                     : 2.40:1
Frame rate mode                          : Constant
Frame rate                               : 23.976 (24000/1001/189150) FPS
Color space                              : YUV
Chroma subsampling                       : 4:2:0
Bit depth                                : 8 bits
Scan type                                : Progressive
Bits/(Pixel*Frame)                       : 0.238
Stream size                              : 6.38 GiB (83%)
Writing library                          : x264 core 157 r2935 545de2f
Encoding settings                        : cabac=1 / ref=5 / deblock=1:-3:-3 / analyse=0x3:0x113 / me=umh / subme=8 / psy=1 / psy_rd=1.00:0.00 / mixed_ref=1 / me_range=32 / chroma_me=1 / trellis=2 / 8x8dct=1 / cqm=0 / deadzone=21,11 / fast_pskip=1 / chroma_qp_offset=-2 / threads=25 / lookahead_threads=4 / sliced_threads=0 / nr=0 / decimate=1 / interlaced=0 / bluray_compat=0 / constrained_intra=0 / bframes=3 / b_pyramid=2 / b_adapt=2 / b_bias=0 / direct=3 / weightb=1 / open_gop=0 / weightp=2 / keyint=240 / keyint_min=24 / scenecut=40 / intra_refresh=0 / rc_lookahead=50 / rc=2pass / mbtree=1 / bitrate=8854 / ratetol=1.0 / qcomp=0.60 / qpmin=0 / qpmax=69 / qpstep=4 / cplxblur=20.0 / qblur=0.5 / ip_ratio=1.40 / aq=3:0.80
Default                                  : Yes
Forced                                   : No
Statistics Tags Issue                    : no_variable_data 1970-01-01 00:00:00 / no_variable_data 2010-02-22 21:41:29
FromStats_BitRate                        : 8851201
FromStats_Duration                       : 01:45:41.836000000
FromStats_FrameCount                     : 152052
FromStats_StreamSize                     : 7016608423

Audio
ID                                       : 2
Format                                   : DTS
Format/Info                              : Digital Theater Systems
Codec ID                                 : A_DTS
Duration                                 : 1 h 45 min
Bit rate mode                            : Constant
Bit rate                                 : 1 509 kb/s
Channel(s)                               : 6 channels
Channel layout                           : C L R Ls Rs LFE
Sampling rate                            : 48.0 kHz
Frame rate                               : 93.750 FPS (512 SPF)
Bit depth                                : 24 bits
Compression mode                         : Lossy
Stream size                              : 1.11 GiB (15%)
Language                                 : English
Default                                  : Yes
Forced                                   : No
Statistics Tags Issue                    : no_variable_data 1970-01-01 00:00:00 / no_variable_data 2010-02-22 21:41:29
FromStats_BitRate                        : 1508999
FromStats_Duration                       : 01:45:41.846000000
FromStats_FrameCount                     : 594548
FromStats_StreamSize                     : 1196230576

Text #1
ID                                       : 3
Format                                   : UTF-8
Codec ID                                 : S_TEXT/UTF8
Codec ID/Info                            : UTF-8 Plain Text
Language                                 : English
Default                                  : No
Forced                                   : No
Statistics Tags Issue                    : no_variable_data 1970-01-01 00:00:00 / no_variable_data 2010-02-22 21:41:29
FromStats_BitRate                        : 28
FromStats_Duration                       : 01:34:49.100000000
FromStats_FrameCount                     : 642
FromStats_StreamSize                     : 20318

Text #2
ID                                       : 4
Format                                   : UTF-8
Codec ID                                 : S_TEXT/UTF8
Codec ID/Info                            : UTF-8 Plain Text
Title                                    : SDH
Language                                 : English
Default                                  : No
Forced                                   : No
Statistics Tags Issue                    : no_variable_data 1970-01-01 00:00:00 / no_variable_data 2010-02-22 21:41:29
FromStats_BitRate                        : 31
FromStats_Duration                       : 01:38:00.041000000
FromStats_FrameCount                     : 769
FromStats_StreamSize                     : 23005

Menu
00:00:00.000                             : en:Chapter 01
00:06:14.124                             : en:Chapter 02
00:12:27.830                             : en:Chapter 03
00:18:58.512                             : en:Chapter 04
00:27:23.225                             : en:Chapter 05
00:36:23.932                             : en:Chapter 06
00:40:56.245                             : en:Chapter 07
00:46:26.284                             : en:Chapter 08
00:52:51.502                             : en:Chapter 09
01:00:13.360                             : en:Chapter 10
01:05:50.113                             : en:Chapter 11
01:12:18.376                             : en:Chapter 12
01:19:00.069                             : en:Chapter 13
01:27:02.509                             : en:Chapter 14
01:32:54.944                             : en:Chapter 15
01:39:32.425                             : en:Chapter 16




                                                                                                                                                                                                        
                                                                                                                                                                                                                                          
64f7bf3f014fa86af9291647e8b38f5c.zip (78.15 KB, 下载次数: 0)

回复

使用道具 举报

小黑屋|百度云资源论坛 |网站地图

本网站所有资源来自网络,如无意中侵犯了您的权益,请发邮件至 [email protected],立即清除相关链接

GMT+8, 2020-9-23 14:19 , Processed in 0.116307 second(s), 23 queries .

Powered by Discuz! X3.2

© 2001-2013 Comsenz Inc.

快速回复 返回顶部 返回列表