百度云资源论坛

 找回密码
 立即注册
搜索

末世家园/末世国货 The.Domestics.2018.1080p.BluRay.X264-AMIABLE 6.56GB

[复制链接]
百度云资源 发表于 2020-9-15 10:55:20 | 显示全部楼层 |阅读模式
帖子完整标题:末世家园/末世国货 The.Domestics.2018.1080p.BluRay.X264-AMIABLE 6.56GB




◎译  名 末世家园/末世国货
◎片  名 The Domestics
◎年  代 2018
◎产  地 美国
◎类  别 惊悚 / 恐怖
◎上映日期 2018-06-29(美国)
◎IMDb评分  5.7/10 from 8435 users
◎片  长 95分钟
◎导  演 迈克·P·纳尔逊 Mike P. Nelson
◎编  剧 迈克·P·纳尔逊 Mike P. Nelson
◎主  演 泰勒·霍奇林 Tyler Hoechlin
       凯特·波茨沃斯 Kate Bosworth
       水野索诺娅 Sonoya Mizuno
       兰斯·莱迪克 Lance Reddick
       大卫·达斯马齐连 David Dastmalchian
       丹娜·格瑞尔 Dana Gourrier
       劳拉·凯洛蒂 Laura Cayouette
       兰斯·E·尼克尔斯 Lance E. Nichols
       杰夫·蔡斯 Jeff Chase
       布拉德·利兰 Brad Leland
       戴夫·戴维斯 Dave Davis
       大卫·詹森 David Jensen
       托马斯·弗兰西斯·墨菲 Thomas Francis Murphy
       迈克·P·纳尔逊 Mike P. Nelson
       吉姆·格里森 Jim Gleason
       戴恩·罗兹 Dane Rhodes
       埃迪·马休斯 Eddie Matthews
       阿尔·维森特 Al Vicente
       Lee Perkins
       索菲娅·罗萨莱斯 Sophia Rosales
       马蒂·费拉罗 Matty Ferraro
       尼古拉斯帕森斯 Nicholas X. Parsons

◎标  签 末世 | 暴力 | 美国 | 犯罪 | 惊悚 | 恐怖 | 美国电影 | 2018

◎简  介

  一对夫妇在被暴徒控制的中西部地带,只有通过与之斗争才能回家的故事,影片将于6月29日北美上映。
Video
ID                                       : 1
Format                                   : AVC
Format/Info                              : Advanced Video Codec
Format settings                          : CABAC / 5 Ref Frames
Format settings, CABAC                   : Yes
Format settings, Reference frames        : 5 frames
Codec ID                                 : V_MPEG4/ISO/AVC
Duration                                 : 1 h 35 min
Bit rate                                 : 9 403 kb/s
Width                                    : 1 920 pixels
Height                                   : 808 pixels
Display aspect ratio                     : 2.40:1
Frame rate mode                          : Constant
Frame rate                               : 23.976 (24000/1001/189150) FPS
Color space                              : YUV
Chroma subsampling                       : 4:2:0
Bit depth                                : 8 bits
Scan type                                : Progressive
Bits/(Pixel*Frame)                       : 0.253
Stream size                              : 6.13 GiB (93%)
Writing library                          : x264 core 157 r2935 545de2f
Encoding settings                        : cabac=1 / ref=5 / deblock=1:-3:-3 / analyse=0x3:0x113 / me=umh / subme=8 / psy=1 / psy_rd=1.00:0.00 / mixed_ref=1 / me_range=32 / chroma_me=1 / trellis=2 / 8x8dct=1 / cqm=0 / deadzone=21,11 / fast_pskip=1 / chroma_qp_offset=-2 / threads=25 / lookahead_threads=4 / sliced_threads=0 / nr=0 / decimate=1 / interlaced=0 / bluray_compat=0 / constrained_intra=0 / bframes=3 / b_pyramid=2 / b_adapt=2 / b_bias=0 / direct=3 / weightb=1 / open_gop=0 / weightp=2 / keyint=240 / keyint_min=24 / scenecut=40 / intra_refresh=0 / rc_lookahead=50 / rc=2pass / mbtree=1 / bitrate=9403 / ratetol=1.0 / qcomp=0.60 / qpmin=0 / qpmax=69 / qpstep=4 / cplxblur=20.0 / qblur=0.5 / ip_ratio=1.40 / aq=3:0.80
Default                                  : Yes
Forced                                   : No
Statistics Tags Issue                    : no_variable_data 1970-01-01 00:00:00 / no_variable_data 2010-02-22 21:41:29
FromStats_BitRate                        : 9404199
FromStats_Duration                       : 01:35:17.796000000
FromStats_FrameCount                     : 137090
FromStats_StreamSize                     : 6721412015

Audio
ID                                       : 2
Format                                   : AC-3
Format/Info                              : Audio Coding 3
Commercial name                          : Dolby Digital
Codec ID                                 : A_AC3
Duration                                 : 1 h 35 min
Bit rate mode                            : Constant
Bit rate                                 : 448 kb/s
Channel(s)                               : 6 channels
Channel layout                           : L R C LFE Ls Rs
Sampling rate                            : 48.0 kHz
Frame rate                               : 31.250 FPS (1536 SPF)
Compression mode                         : Lossy
Stream size                              : 305 MiB (5%)
Language                                 : English
Service kind                             : Complete Main
Default                                  : Yes
Forced                                   : No
Statistics Tags Issue                    : no_variable_data 1970-01-01 00:00:00 / no_variable_data 2010-02-22 21:41:29
FromStats_BitRate                        : 448000
FromStats_Duration                       : 01:35:17.824000000
FromStats_FrameCount                     : 178682
FromStats_StreamSize                     : 320198144

Text #1
ID                                       : 3
Format                                   : UTF-8
Codec ID                                 : S_TEXT/UTF8
Codec ID/Info                            : UTF-8 Plain Text
Language                                 : English
Default                                  : No
Forced                                   : No
Statistics Tags Issue                    : no_variable_data 1970-01-01 00:00:00 / no_variable_data 2010-02-22 21:41:29
FromStats_BitRate                        : 40
FromStats_Duration                       : 01:31:53.759000000
FromStats_FrameCount                     : 877
FromStats_StreamSize                     : 27821

Text #2
ID                                       : 4
Format                                   : UTF-8
Codec ID                                 : S_TEXT/UTF8
Codec ID/Info                            : UTF-8 Plain Text
Title                                    : SDH
Language                                 : English
Default                                  : No
Forced                                   : No
Statistics Tags Issue                    : no_variable_data 1970-01-01 00:00:00 / no_variable_data 2010-02-22 21:41:29
FromStats_BitRate                        : 46
FromStats_Duration                       : 01:31:53.759000000
FromStats_FrameCount                     : 1005
FromStats_StreamSize                     : 31871

Menu
00:00:00.000                             : en:00:00:00.000
00:09:11.926                             : en:00:09:11.926
00:12:26.204                             : en:00:12:26.204
00:15:16.958                             : en:00:15:16.958
00:19:15.946                             : en:00:19:15.946
00:23:04.967                             : en:00:23:04.967
00:28:34.963                             : en:00:28:34.963
00:39:53.975                             : en:00:39:53.975
00:43:20.973                             : en:00:43:20.973
00:51:49.315                             : en:00:51:49.315
00:56:17.916                             : en:00:56:17.916
01:03:11.705                             : en:01:03:11.705
01:13:56.974                             : en:01:13:56.974
01:18:42.134                             : en:01:18:42.134
01:22:09.633                             : en:01:22:09.633
01:31:24.938                             : en:01:31:24.938




                                                                                                                                                                                                        


683ae482fb24e0f6a73be07007ae84fd.zip (132.8 KB, 下载次数: 0)

回复

使用道具 举报

小黑屋|百度云资源论坛 |网站地图

本网站所有资源来自网络,如无意中侵犯了您的权益,请发邮件至 [email protected],立即清除相关链接

GMT+8, 2020-9-23 13:12 , Processed in 0.113096 second(s), 23 queries .

Powered by Discuz! X3.2

© 2001-2013 Comsenz Inc.

快速回复 返回顶部 返回列表