百度云资源论坛

 找回密码
 立即注册
搜索

最终行动 Operation.Finale.2018.1080p.BluRay.X264-AMIABLE 8.77GB

[复制链接]
百度云电影 发表于 2020-9-15 10:55:20 | 显示全部楼层 |阅读模式
帖子完整标题:最终行动 Operation.Finale.2018.1080p.BluRay.X264-AMIABLE 8.77GB




◎译  名 最终行动/Eichmann/纳粹终章(港)/终极行动/终结行动
◎片  名 Operation Finale
◎年  代 2018
◎产  地 美国
◎类  别 剧情 / 传记 / 历史
◎语  言 英语,法语,德语,西班牙语
◎上映日期 2018-08-29(美国)
◎IMDb评分  6.6/10 from 29916 users
◎片  长 122分钟
◎导  演 克里斯·韦兹 Chris Weitz
◎编  剧 马修·奥尔顿 Matthew Orton
◎主  演 奥斯卡·伊萨克 Oscar Isaac
       本·金斯利 Ben Kingsley
       梅拉尼·罗兰 Mélanie Laurent
       利奥·拉兹 Lior Raz
       尼克·克罗尔 Nick Kroll
       迈克尔·阿伦诺夫 Michael Aronov
       欧哈德·诺勒 Ohad Knoller
       托本·利布雷希特 Torben Liebrecht
       乔·阿尔文 Joe Alwyn
       格列塔·斯卡奇 Greta Scacchi
       彼得·斯特劳斯 Peter Strauss
       海莉·露·理查森 Haley Lu Richardson
       佩佩·拉帕佐特 Pêpê Rapazote
       西蒙·拉塞尔·比尔 Simon Russell Beale
       阿兰·柯德勒 Allan Corduner

◎标  签 历史 | 真实事件改编 | 二战 | 美国 | 传记 | 剧情 | 以色列 | 2018

◎简  介

  改编自著名历史真实事件:以色列摩萨德组织追捕纳粹德国高官、被称为“死刑执行者”的阿道夫·艾希曼的故事。
  
  金斯利饰演艾希曼;阿尔文饰他最年长的儿子克劳斯,在追捕行动期间为了隐藏父亲的身份而谎称是他叔叔;伊萨克饰摩萨德小队领导Peter Malkin,与罗兰饰演的小队唯一女性、麻醉学者Hanna有感情戏;理查森饰克劳斯的女友Sylvia Herman,她起初不顾家人警告和反对疯狂爱上了克劳斯,最终转投摩萨德;阿隆诺夫饰摩萨德特工Zvi Aharoni,傲慢不羁,经常和Peter Malkin发生争执;拉兹饰摩萨德局长Isser Harel。
Video
ID                                       : 1
Format                                   : AVC
Format/Info                              : Advanced Video Codec
Format settings                          : CABAC / 4 Ref Frames
Format settings, CABAC                   : Yes
Format settings, Reference frames        : 4 frames
Codec ID                                 : V_MPEG4/ISO/AVC
Duration                                 : 2 h 2 min
Bit rate                                 : 8 698 kb/s
Width                                    : 1 920 pixels
Height                                   : 1 040 pixels
Display aspect ratio                     : 1.85:1
Frame rate mode                          : Constant
Frame rate                               : 23.976 (24000/1001/189150) FPS
Color space                              : YUV
Chroma subsampling                       : 4:2:0
Bit depth                                : 8 bits
Scan type                                : Progressive
Bits/(Pixel*Frame)                       : 0.182
Stream size                              : 7.28 GiB (83%)
Writing library                          : x264 core 157 r2935 545de2f
Encoding settings                        : cabac=1 / ref=4 / deblock=1:-3:-3 / analyse=0x3:0x113 / me=umh / subme=8 / psy=1 / psy_rd=1.00:0.00 / mixed_ref=1 / me_range=32 / chroma_me=1 / trellis=2 / 8x8dct=1 / cqm=0 / deadzone=21,11 / fast_pskip=1 / chroma_qp_offset=-2 / threads=32 / lookahead_threads=5 / sliced_threads=0 / nr=0 / decimate=1 / interlaced=0 / bluray_compat=0 / constrained_intra=0 / bframes=3 / b_pyramid=2 / b_adapt=2 / b_bias=0 / direct=3 / weightb=1 / open_gop=0 / weightp=2 / keyint=240 / keyint_min=24 / scenecut=40 / intra_refresh=0 / rc_lookahead=50 / rc=2pass / mbtree=1 / bitrate=8698 / ratetol=1.0 / qcomp=0.60 / qpmin=0 / qpmax=69 / qpstep=4 / cplxblur=20.0 / qblur=0.5 / ip_ratio=1.40 / aq=3:0.80
Default                                  : Yes
Forced                                   : No
Statistics Tags Issue                    : no_variable_data 1970-01-01 00:00:00 / no_variable_data 2010-02-22 21:41:29
FromStats_BitRate                        : 8697083
FromStats_Duration                       : 02:02:38.852000000
FromStats_FrameCount                     : 176436
FromStats_StreamSize                     : 8000068604

Audio
ID                                       : 2
Format                                   : DTS
Format/Info                              : Digital Theater Systems
Codec ID                                 : A_DTS
Duration                                 : 2 h 2 min
Bit rate mode                            : Constant
Bit rate                                 : 1 509 kb/s
Channel(s)                               : 6 channels
Channel layout                           : C L R Ls Rs LFE
Sampling rate                            : 48.0 kHz
Frame rate                               : 93.750 FPS (512 SPF)
Bit depth                                : 24 bits
Compression mode                         : Lossy
Stream size                              : 1.29 GiB (15%)
Language                                 : English
Default                                  : Yes
Forced                                   : No
Statistics Tags Issue                    : no_variable_data 1970-01-01 00:00:00 / no_variable_data 2010-02-22 21:41:29
FromStats_BitRate                        : 1508999
FromStats_Duration                       : 02:02:38.859000000
FromStats_FrameCount                     : 689893
FromStats_StreamSize                     : 1388064716

Text #1
ID                                       : 3
Format                                   : UTF-8
Codec ID                                 : S_TEXT/UTF8
Codec ID/Info                            : UTF-8 Plain Text
Language                                 : English
Default                                  : No
Forced                                   : No
Statistics Tags Issue                    : no_variable_data 1970-01-01 00:00:00 / no_variable_data 2010-02-22 21:41:29
FromStats_BitRate                        : 48
FromStats_Duration                       : 01:53:17.499000000
FromStats_FrameCount                     : 1418
FromStats_StreamSize                     : 41114

Text #2
ID                                       : 4
Format                                   : UTF-8
Codec ID                                 : S_TEXT/UTF8
Codec ID/Info                            : UTF-8 Plain Text
Title                                    : SDH
Language                                 : English
Default                                  : No
Forced                                   : No
Statistics Tags Issue                    : no_variable_data 1970-01-01 00:00:00 / no_variable_data 2010-02-22 21:41:29
FromStats_BitRate                        : 54
FromStats_Duration                       : 01:53:41.523000000
FromStats_FrameCount                     : 1606
FromStats_StreamSize                     : 46163

Menu
00:00:00.000                             : en:Chapter 01
00:07:11.056                             : en:Chapter 02
00:13:22.176                             : en:Chapter 03
00:17:19.538                             : en:Chapter 04
00:24:44.149                             : en:Chapter 05
00:31:32.599                             : en:Chapter 06
00:35:49.647                             : en:Chapter 07
00:40:26.799                             : en:Chapter 08
00:47:11.579                             : en:Chapter 09
00:54:53.916                             : en:Chapter 10
01:00:20.700                             : en:Chapter 11
01:08:55.840                             : en:Chapter 12
01:14:11.238                             : en:Chapter 13
01:22:05.796                             : en:Chapter 14
01:27:13.562                             : en:Chapter 15
01:34:38.131                             : en:Chapter 16
01:41:02.265                             : en:Chapter 17
01:45:13.349                             : en:Chapter 18
01:51:04.157                             : en:Chapter 19
01:58:06.621                             : en:Chapter 20




                                                                                                                                                                                                        
                                                                                                                                                                                                                                          
1abe35f196b4d8104dd5ca879baf465e.zip (89.26 KB, 下载次数: 0)

回复

使用道具 举报

小黑屋|百度云资源论坛 |网站地图

本网站所有资源来自网络,如无意中侵犯了您的权益,请发邮件至 [email protected],立即清除相关链接

GMT+8, 2020-9-29 09:32 , Processed in 0.105801 second(s), 23 queries .

Powered by Discuz! X3.2

© 2001-2013 Comsenz Inc.

快速回复 返回顶部 返回列表