百度云资源论坛

 找回密码
 立即注册
搜索

从地心到太阳 From.Core.To.Sun.2018.SPANISH.1080p.BluRay.x264-HANDJOB 7....

[复制链接]
百度云资源 发表于 2020-9-15 10:55:20 | 显示全部楼层 |阅读模式
帖子完整标题:从地心到太阳 From.Core.To.Sun.2018.SPANISH.1080p.BluRay.x264-HANDJOB 7.55GB




◎译  名 从地心到太阳/From Core to Sun
◎片  名 Del núcleo al sol
◎年  代 2018
◎产  地 厄瓜多尔
◎类  别 纪录片
◎语  言 西班牙语,英语
◎上映日期 2018-06-01(厄瓜多尔)
◎IMDb评分  9.4/10 from 88 users
◎片  长 97分钟
◎编  剧 卡罗莱娜·索萨 Carolina Sosa

◎标  签 厄瓜多尔

◎简  介

  Ecuadorian athlete Millán Lude?a, embarks on his new adventure to be the first athlete to register a new Guinness World Record for his beloved country.
Video
ID                                       : 3
Format                                   : AVC
Format/Info                              : Advanced Video Codec
Format settings                          : CABAC / 4 Ref Frames
Format settings, CABAC                   : Yes
Format settings, Reference frames        : 4 frames
Codec ID                                 : V_MPEG4/ISO/AVC
Duration                                 : 1 h 37 min
Bit rate                                 : 10.4 Mb/s
Width                                    : 1 920 pixels
Height                                   : 1 080 pixels
Display aspect ratio                     : 16:9
Frame rate mode                          : Constant
Frame rate                               : 24.000 FPS
Color space                              : YUV
Chroma subsampling                       : 4:2:0
Bit depth                                : 8 bits
Scan type                                : Progressive
Bits/(Pixel*Frame)                       : 0.210
Stream size                              : 7.11 GiB (94%)
Writing library                          : x264 core 157 r2935 545de2f
Encoding settings                        : cabac=1 / ref=4 / deblock=1:-3:-3 / analyse=0x3:0x133 / me=umh / subme=10 / psy=1 / psy_rd=1.00:0.00 / mixed_ref=1 / me_range=32 / chroma_me=1 / trellis=2 / 8x8dct=1 / cqm=0 / deadzone=21,11 / fast_pskip=0 / chroma_qp_offset=-2 / threads=34 / lookahead_threads=8 / sliced_threads=0 / nr=0 / decimate=0 / interlaced=0 / bluray_compat=0 / constrained_intra=0 / bframes=16 / b_pyramid=2 / b_adapt=2 / b_bias=0 / direct=3 / weightb=1 / open_gop=0 / weightp=2 / keyint=240 / keyint_min=24 / scenecut=40 / intra_refresh=0 / rc_lookahead=60 / rc=crf / mbtree=0 / crf=18.5 / qcomp=0.60 / qpmin=0 / qpmax=69 / qpstep=4 / vbv_maxrate=62500 / vbv_bufsize=78125 / crf_max=0.0 / nal_hrd=none / filler=0 / ip_ratio=1.40 / pb_ratio=1.30 / aq=2:1.00
Default                                  : Yes
Forced                                   : No
Color range                              : Limited
Color primaries                          : BT.709
Transfer characteristics                 : BT.709
Matrix coefficients                      : BT.709

Audio
ID                                       : 1
Format                                   : AC-3
Format/Info                              : Audio Coding 3
Commercial name                          : Dolby Digital
Codec ID                                 : A_AC3
Duration                                 : 1 h 37 min
Bit rate mode                            : Constant
Bit rate                                 : 640 kb/s
Channel(s)                               : 6 channels
Channel layout                           : L R C LFE Ls Rs
Sampling rate                            : 48.0 kHz
Frame rate                               : 31.250 FPS (1536 SPF)
Compression mode                         : Lossy
Stream size                              : 447 MiB (6%)
Language                                 : Spanish
Service kind                             : Complete Main
Default                                  : Yes
Forced                                   : No

Text
ID                                       : 2
Format                                   : UTF-8
Codec ID                                 : S_TEXT/UTF8
Codec ID/Info                            : UTF-8 Plain Text
Duration                                 : 1 h 34 min
Bit rate                                 : 53 b/s
Count of elements                        : 899
Stream size                              : 37.2 KiB (0%)
Language                                 : English
Default                                  : Yes
Forced                                   : No

Menu
00:00:00.000                             : :Chapter 1
00:02:58.875                             : :Chapter 2
00:12:02.500                             : :Chapter 3
00:22:21.292                             : :Chapter 4
00:33:08.542                             : :Chapter 5
00:43:38.792                             : :Chapter 6
00:53:57.708                             : :Chapter 7
01:03:14.958                             : :Chapter 8
01:15:58.000                             : :Chapter 9
01:24:44.792                             : :Chapter 10
01:34:02.542                             : :Chapter 11






229c413d5e6c5bf7bee4ee80e47c1385.zip (39.22 KB, 下载次数: 0)

回复

使用道具 举报

小黑屋|百度云资源论坛 |网站地图

本网站所有资源来自网络,如无意中侵犯了您的权益,请发邮件至 [email protected],立即清除相关链接

GMT+8, 2020-9-23 13:46 , Processed in 0.101061 second(s), 23 queries .

Powered by Discuz! X3.2

© 2001-2013 Comsenz Inc.

快速回复 返回顶部 返回列表