百度云资源论坛

 找回密码
 立即注册
搜索

22英里/拳力逃脱 Mile.22.2018.1080p.BluRay.X264-AMIABLE 6.57GB

[复制链接]
百度云资源 发表于 2020-9-15 10:55:20 | 显示全部楼层 |阅读模式
帖子完整标题:22英里/拳力逃脱 Mile.22.2018.1080p.BluRay.X264-AMIABLE 6.57GB




◎译  名 22英里/拳力逃脱(台)/绝地22哩(港)
◎片  名 Mile 22
◎年  代 2018
◎产  地 美国
◎类  别 动作 / 犯罪 / 冒险
◎语  言 英语,俄语,印度尼西亚语
◎上映日期 2018-08-17(美国)
◎IMDb评分  6.1/10 from 63114 users
◎片  长 94分钟
◎导  演 彼得·博格 Peter Berg
◎编  剧 利·卡彭特 Lea Carpenter / 格雷厄姆·罗兰 Graham Roland
◎主  演 马克·沃尔伯格 Mark Wahlberg
       劳伦·科汉 Lauren Cohan
       伊科·乌艾斯 Iko Uwais
       约翰·马尔科维奇 John Malkovich
       龙达·鲁西 Ronda Rousey
       卡尔洛·阿尔班 Carlo Alban
       娜塔莎·古布斯卡亚 Natasha Goubskaya
       李彩麟 Chae-rin Lee
       山姆·麦地那 Sam Medina
       基思·阿瑟·鲍顿 Keith Arthur Bolden
       比利·史密斯 Billy Smith
       米凯·霍姆斯 Myke Holmes
       艾米莉· 斯凯格斯 Emily Skeggs
       特里·金尼 Terry Kinney
       普娜·贾甘纳坦 Poorna Jagannathan
       彼得·博格 Peter Berg
       埃尔·格雷厄姆 Elle Graham
       尼古拉·尼克拉斐 Nikolai Nikolaeff
       大卫·加雷利克 David Garelik
       肖恩·艾弗里 Sean Avery
       特雷弗·格雷茨基 Trevor Gretzky
       里奇·拉瑟福德 Rich Rutherford
       亚历山德拉·维诺 Alexandra Vino
       约翰·盖蒂尔 John Gettier
       萨姆·鲁克 Sam Looc
       迈克尔·皮耶里诺·米勒 Michael Pierino Miller
       巴拉克·奥巴马 Barack Obama
       里克·佩雷斯 Rick Perez
       帕蒂·舍尔哈斯 Patti Schellhaas
       唐纳德·特朗普 Donald Trump
       瑞文·韦恩 Raven Wynn
       朱莉娅·尼克森 Julia Nickson
       萨拉·贝克 Sala Baker
       劳伦·玛丽·金 Lauren Mary Kim

◎标  签 动作 | 特工 | 美国 | 马克·沃尔伯格 | 犯罪 | 2018 | 警匪 | 惊悚

◎简  介

  驻扎在印度尼西亚的美国CIA探员,詹姆斯·席尔瓦,从小就有狂躁症的他,却是数一数二的特工。他所属的精密作战小队从接到任务开始就不再归属任何国家的管控。正当席尔瓦的团队在为放射性核武器的下落苦恼时,当地警官李努尔,也是团队的污点证人,突然现身并揭发了核武器的所在。剩下的核武器所在地点被他加密 保存,他要求席尔瓦等人8小时内把他送出印尼,才会说出密码,否则所有未找到的核武器就会同时爆炸。时间紧迫,席尔瓦等人立即向CIA递交了辞呈准备先锋护送行动,目的是把李努尔送到22英里之外的飞机“天使号”上,并得到李努尔手中的磁盘密码。短短的22英里,却是危机四伏,当地的印尼特工为了追捕李努尔,对席尔瓦进行了沉痛的打击。但他们双方都不知道的是,俄方情报局正在背后秘密监视着整个行动,席尔瓦等人也并不知道这场行动从一开始就是场特洛伊行动。
Video
ID                                       : 1
Format                                   : AVC
Format/Info                              : Advanced Video Codec
Format settings                          : CABAC / 5 Ref Frames
Format settings, CABAC                   : Yes
Format settings, Reference frames        : 5 frames
Codec ID                                 : V_MPEG4/ISO/AVC
Duration                                 : 1 h 34 min
Bit rate                                 : 9 277 kb/s
Width                                    : 1 920 pixels
Height                                   : 800 pixels
Display aspect ratio                     : 2.40:1
Frame rate mode                          : Constant
Frame rate                               : 23.976 (24000/1001/189150) FPS
Color space                              : YUV
Chroma subsampling                       : 4:2:0
Bit depth                                : 8 bits
Scan type                                : Progressive
Bits/(Pixel*Frame)                       : 0.252
Stream size                              : 6.00 GiB (92%)
Writing library                          : x264 core 157 r2935 545de2f
Encoding settings                        : cabac=1 / ref=5 / deblock=1:-3:-3 / analyse=0x3:0x113 / me=umh / subme=8 / psy=1 / psy_rd=1.00:0.00 / mixed_ref=1 / me_range=32 / chroma_me=1 / trellis=2 / 8x8dct=1 / cqm=0 / deadzone=21,11 / fast_pskip=1 / chroma_qp_offset=-2 / threads=25 / lookahead_threads=4 / sliced_threads=0 / nr=0 / decimate=1 / interlaced=0 / bluray_compat=0 / constrained_intra=0 / bframes=3 / b_pyramid=2 / b_adapt=2 / b_bias=0 / direct=3 / weightb=1 / open_gop=0 / weightp=2 / keyint=240 / keyint_min=24 / scenecut=40 / intra_refresh=0 / rc_lookahead=50 / rc=2pass / mbtree=1 / bitrate=9277 / ratetol=1.0 / qcomp=0.60 / qpmin=0 / qpmax=69 / qpstep=4 / cplxblur=20.0 / qblur=0.5 / ip_ratio=1.40 / aq=3:0.80
Default                                  : Yes
Forced                                   : No
Statistics Tags Issue                    : no_variable_data 1970-01-01 00:00:00 / no_variable_data 2010-02-22 21:41:29
FromStats_BitRate                        : 9271023
FromStats_Duration                       : 01:34:40.050000000
FromStats_FrameCount                     : 136185
FromStats_StreamSize                     : 6582484324

Audio
ID                                       : 2
Format                                   : AC-3
Format/Info                              : Audio Coding 3
Commercial name                          : Dolby Digital
Codec ID                                 : A_AC3
Duration                                 : 1 h 34 min
Bit rate mode                            : Constant
Bit rate                                 : 640 kb/s
Channel(s)                               : 6 channels
Channel layout                           : L R C LFE Ls Rs
Sampling rate                            : 48.0 kHz
Frame rate                               : 31.250 FPS (1536 SPF)
Compression mode                         : Lossy
Stream size                              : 433 MiB (6%)
Language                                 : English
Service kind                             : Complete Main
Default                                  : Yes
Forced                                   : No
Statistics Tags Issue                    : no_variable_data 1970-01-01 00:00:00 / no_variable_data 2010-02-22 21:41:29
FromStats_BitRate                        : 640000
FromStats_Duration                       : 01:34:39.872000000
FromStats_FrameCount                     : 177496
FromStats_StreamSize                     : 454389760

Text #1
ID                                       : 3
Format                                   : UTF-8
Codec ID                                 : S_TEXT/UTF8
Codec ID/Info                            : UTF-8 Plain Text
Title                                    : Forced
Language                                 : English
Default                                  : Yes
Forced                                   : Yes
Statistics Tags Issue                    : no_variable_data 1970-01-01 00:00:00 / no_variable_data 2010-02-22 21:41:29
FromStats_BitRate                        : 1
FromStats_Duration                       : 01:11:25.239000000
FromStats_FrameCount                     : 42
FromStats_StreamSize                     : 853

Text #2
ID                                       : 4
Format                                   : UTF-8
Codec ID                                 : S_TEXT/UTF8
Codec ID/Info                            : UTF-8 Plain Text
Language                                 : English
Default                                  : No
Forced                                   : No
Statistics Tags Issue                    : no_variable_data 1970-01-01 00:00:00 / no_variable_data 2010-02-22 21:41:29
FromStats_BitRate                        : 69
FromStats_Duration                       : 01:25:02.013000000
FromStats_FrameCount                     : 1403
FromStats_StreamSize                     : 44361

Text #3
ID                                       : 5
Format                                   : UTF-8
Codec ID                                 : S_TEXT/UTF8
Codec ID/Info                            : UTF-8 Plain Text
Title                                    : SDH
Language                                 : English
Default                                  : No
Forced                                   : No
Statistics Tags Issue                    : no_variable_data 1970-01-01 00:00:00 / no_variable_data 2010-02-22 21:41:29
FromStats_BitRate                        : 77
FromStats_Duration                       : 01:26:57.170000000
FromStats_FrameCount                     : 1584
FromStats_StreamSize                     : 50748

Menu
00:00:00.000                             : en:00:00:00.000
00:12:06.225                             : en:00:12:06.225
00:24:27.925                             : en:00:24:27.925
00:36:23.139                             : en:00:36:23.139
00:48:42.211                             : en:00:48:42.211
01:04:11.264                             : en:01:04:11.264
01:17:49.665                             : en:01:17:49.665
01:27:14.604                             : en:01:27:14.604




                                                                                                                                                                                                        


ea4c2d5d532e822020a4ae734b387aab.zip (132.97 KB, 下载次数: 0)

回复

使用道具 举报

小黑屋|百度云资源论坛 |网站地图

本网站所有资源来自网络,如无意中侵犯了您的权益,请发邮件至 [email protected],立即清除相关链接

GMT+8, 2020-9-23 15:15 , Processed in 0.121530 second(s), 23 queries .

Powered by Discuz! X3.2

© 2001-2013 Comsenz Inc.

快速回复 返回顶部 返回列表