百度云资源论坛

 找回密码
 立即注册
搜索

女哭声 The.Wrath.2018.KOREAN.1080p.BluRay.X264-WiKi 9.90GB

[复制链接]
百度云电影 发表于 2020-9-15 10:55:20 | 显示全部楼层 |阅读模式
帖子完整标题:女哭声 The.Wrath.2018.KOREAN.1080p.BluRay.X264-WiKi 9.90GB




◎译  名 女哭声/The Wrath/夜半鬼哭声(台)
◎片  名 ???
◎年  代 2018
◎产  地 韩国
◎类  别 恐怖
◎语  言 韩语
◎上映日期 2018-11-08(韩国)
◎IMDb评分  5.2/10 from 285 users
◎片  长 94分钟
◎导  演 柳永善 Young-seon Yoo
◎主  演 孙娜恩 Na-Eun Son
       徐英姬 Yeong-hie Seo
       金浩昌 Ho Chang Kim
       陆进秀 Jin-soo Yuk
       朴敏智 Min-ji Park
       李敏豪 Min-ho Lee
       朴珠美 Joo-mi Park
       崔宏一 Hong-il Choi
       金熙尚 Hee-sang Kim
       郑大路 Dae-ro Jung

◎标  签 恐怖 | 韩国 | 惊悚 | 韩国电影 | 灵异 | 2018 | 悬疑 | 孙娜恩

◎简  介

  朝鲜王国某官员宅内,因以前一桩恩怨惹到怨灵缠身,导致长子、次子接连身亡。家主夫人(徐英姬 饰)不想家道中落,遂主持张罗为三子明奎迎娶一个卑贱女子(孙娜恩 饰),并且安排佣人之子代入洞房,以期骗过女鬼。谁曾想明奎贪恋新娘美貌,执意亲自合房。结果当夜女鬼前来,明奎身亡。在此之后,三少奶奶有孕在身,母凭子贵,得以留在这个家中。她不仅要应对女鬼三番五次的骚扰,更要时刻留心来自两位嫂子的暗算。
  
  为了保住来之不易的子嗣,夫人请来一位法术极其高深的巫师醮禳。巫师忌惮怨灵的法力,当他得知三少奶奶自身所具有的法力后,力劝女孩离开这个家,但是遭到了女孩的拒绝……
Video
ID                                       : 1
Format                                   : AVC
Format/Info                              : Advanced Video Codec
Format settings                          : CABAC / 5 Ref Frames
Format settings, CABAC                   : Yes
Format settings, ReFrames                : 5 frames
Codec ID                                 : V_MPEG4/ISO/AVC
Duration                                 : 1 h 34 min
Bit rate                                 : 14.3 Mb/s
Width                                    : 1 920 pixels
Height                                   : 858 pixels
Display aspect ratio                     : 2.25:1
Frame rate mode                          : Constant
Frame rate                               : 24.000 FPS
Color space                              : YUV
Chroma subsampling                       : 4:2:0
Bit depth                                : 8 bits
Scan type                                : Progressive
Bits/(Pixel*Frame)                       : 0.362
Stream size                              : 9.48 GiB (96%)
Writing library                          : x264 core 157 r2867+103 0d6443f t_mod_Custom_2  
Encoding settings                        : cabac=1 / ref=5 / deblock=1:-3:-3 / analyse=0x3:0x133 / me=umh / subme=10 / psy=1 / fade_compensate=0.00 / psy_rd=1.00:0.00 / mixed_ref=1 / me_range=32 / chroma_me=1 / trellis=2 / 8x8dct=1 / cqm=0 / deadzone=21,11 / fast_pskip=0 / chroma_qp_offset=-2 / threads=12 / lookahead_threads=2 / sliced_threads=0 / nr=0 / decimate=0 / interlaced=0 / bluray_compat=0 / constrained_intra=0 / fgo=0 / bframes=8 / b_pyramid=2 / b_adapt=2 / b_bias=0 / direct=3 / weightb=1 / open_gop=0 / weightp=2 / keyint=250 / keyint_min=24 / scenecut=40 / intra_refresh=0 / rc_lookahead=60 / rc=crf / mbtree=0 / crf=17.0000 / qcomp=0.65 / qpmin=0:0:0 / qpmax=69:69:69 / qpstep=4 / vbv_maxrate=62500 / vbv_bufsize=78125 / crf_max=0.0 / nal_hrd=none / filler=0 / ip_ratio=1.35 / pb_ratio=1.25 / aq=3:0.83 / aq-sensitivity=10.00 / aq-factor=1.00:1.00:1.00 / aq2=0 / aq3=0 / zones=49,492,crf=14.5/132561,136364,b=0.5
Language                                 : English
Default                                  : Yes
Forced                                   : No

Audio
ID                                       : 2
Format                                   : AC-3
Format/Info                              : Audio Coding 3
Commercial name                          : Dolby Digital
Codec ID                                 : A_AC3
Duration                                 : 1 h 34 min
Bit rate mode                            : Constant
Bit rate                                 : 640 kb/s
Channel(s)                               : 6 channels
Channel layout                           : L R C LFE Ls Rs
Sampling rate                            : 48.0 kHz
Frame rate                               : 31.250 FPS (1536 SPF)
Bit depth                                : 16 bits
Compression mode                         : Lossy
Stream size                              : 433 MiB (4%)
Language                                 : Korean
Service kind                             : Complete Main
Default                                  : Yes
Forced                                   : No

Text
ID                                       : 3
Format                                   : UTF-8
Codec ID                                 : S_TEXT/UTF8
Codec ID/Info                            : UTF-8 Plain Text
Duration                                 : 1 h 31 min
Bit rate                                 : 22 b/s
Count of elements                        : 562
Stream size                              : 15.1 KiB (0%)
Language                                 : English
Default                                  : Yes
Forced                                   : No

Menu
00:00:00.000                             : en:00:00:00.000
00:03:35.833                             : en:00:03:35.833
00:06:57.167                             : en:00:06:57.167
00:12:25.542                             : en:00:12:25.542
00:17:11.208                             : en:00:17:11.208
00:20:46.333                             : en:00:20:46.333
00:26:22.833                             : en:00:26:22.833
00:30:19.375                             : en:00:30:19.375
00:36:18.958                             : en:00:36:18.958
00:42:40.042                             : en:00:42:40.042
00:47:02.250                             : en:00:47:02.250
00:54:25.708                             : en:00:54:25.708
01:02:58.208                             : en:01:02:58.208
01:07:21.667                             : en:01:07:21.667
01:11:42.000                             : en:01:11:42.000
01:15:46.250                             : en:01:15:46.250
01:21:12.458                             : en:01:21:12.458
01:29:59.625                             : en:01:29:59.625




                                                                                                                                                                                                        


83e6f462c2ae6e45e7838e01208aad69.zip (50.96 KB, 下载次数: 0)

回复

使用道具 举报

小黑屋|百度云资源论坛 |网站地图

本网站所有资源来自网络,如无意中侵犯了您的权益,请发邮件至 [email protected],立即清除相关链接

GMT+8, 2020-9-29 08:49 , Processed in 0.099632 second(s), 23 queries .

Powered by Discuz! X3.2

© 2001-2013 Comsenz Inc.

快速回复 返回顶部 返回列表