百度云资源论坛

 找回密码
 立即注册
搜索

阳光姐妹淘 Sunny.Our.Hearts.Beat.Together.2018.JAPANESE.1080p.BluRay.x26...

[复制链接]
百度云电影 发表于 2020-9-15 10:55:20 | 显示全部楼层 |阅读模式
帖子完整标题:阳光姐妹淘 Sunny.Our.Hearts.Beat.Together.2018.JAPANESE.1080p.BluRay.x264-WiKi 9.75GB




◎译  名 阳光姐妹淘/Sunny: Our Hearts Beat Together/SUNNY我们的青春(台)/SUNNY阳光姊妹淘(港)
◎片  名 SUNNY 強い気持ち?強い愛
◎年  代 2018
◎产  地 日本
◎类  别 剧情 / 喜剧 / 歌舞
◎语  言 日语
◎上映日期 2018-08-31(日本)
◎IMDb评分  6.8/10 from 441 users
◎片  长 119分钟
◎导  演 大根仁 Hitoshi Ohne
◎编  剧 大根仁 Hitoshi Ohne / 姜炯哲 Hyeong-Cheol Kang
◎主  演 筱原凉子 Ryoko Shinohara
       广濑铃 Suzu Hirose
       板谷由夏 Yuka Itaya
       小池荣子 Eiko Koike
       友坂理惠 Rie Tomosaka
       渡边直美 Naomi Watanabe
       池田依来沙 Elaiza Ikeda
       山本舞香 Maika Yamamoto
       野田美櫻 Mio Noda
       田边桃子 Momoko Tanabe
       富田望生 Miu Tomita
       三浦春马 Haruma Miura
       中川雅也 Lily Franky
       新井浩文 Hirofumi Arai
       矢本悠马 Yuma Yamoto
       円田はるか Haruka Enta
       真崎かれん Karen Masaki

◎标  签 日本 | 青春 | 友情 | 女性 | 成长 | 温情 | 喜剧 | 翻拍

◎简  介

  90年代的日本,6名女子高中生组成了「SUNNY」,一起经历了美好的青春岁月,更希望可以一直在一起…转眼20年过去,她们却各自踏上不一样的路,过着毫无交集的生活。某天,已经成为家庭主妇的奈美,竟遇上另一成员芹香,更意想不到的是好友身患重病,时日无多…她唯一的愿望就是跟「SUNNY」成员重聚!为了实现芹香最后的心愿,奈美展开了寻找昔日好友之旅…

◎获奖情况

  第61届日本电影蓝丝带奖 ?(2019)
  年度十佳日本电影
  
  第43届报知映画赏 ?(2018)
  最佳影片(提名) 大根仁
  最佳女主角 筱原凉子
  
  第6届豆瓣电影年度榜单 ?(2019)
  评分最高的日本电影
  评分最高的喜剧片(提名)
Video
ID                                       : 1
Format                                   : AVC
Format/Info                              : Advanced Video Codec
Format settings                          : CABAC / 4 Ref Frames
Format settings, CABAC                   : Yes
Format settings, ReFrames                : 4 frames
Codec ID                                 : V_MPEG4/ISO/AVC
Duration                                 : 1 h 58 min
Bit rate                                 : 11.1 Mb/s
Width                                    : 1 920 pixels
Height                                   : 1 040 pixels
Display aspect ratio                     : 1.85:1
Frame rate mode                          : Constant
Frame rate                               : 24.000 FPS
Color space                              : YUV
Chroma subsampling                       : 4:2:0
Bit depth                                : 8 bits
Scan type                                : Progressive
Bits/(Pixel*Frame)                       : 0.232
Stream size                              : 9.22 GiB (95%)
Writing library                          : x264 core 129 r2245+704+36 8e61944 tMod+MixAQ
Encoding settings                        : cabac=1 / ref=4 / deblock=1:-3:-3 / analyse=0x3:0x133 / me=umh / subme=11 / psy=1 / fade_compensate=0.00 / psy_rd=1.05:0.10 / mixed_ref=1 / me_range=64 / chroma_me=1 / trellis=2 / 8x8dct=1 / cqm=0 / deadzone=21,11 / fast_pskip=0 / chroma_qp_offset=-3 / threads=18 / lookahead_threads=3 / sliced_threads=0 / nr=0 / decimate=0 / interlaced=0 / bluray_compat=0 / constrained_intra=0 / fgo=0 / bframes=10 / b_pyramid=2 / b_adapt=2 / b_bias=0 / direct=3 / weightb=1 / open_gop=0 / weightp=2 / keyint=250 / keyint_min=24 / scenecut=40 / intra_refresh=0 / rc=2pass / mbtree=0 / bitrate=11114 / ratetol=1.0 / qcomp=0.70 / qpmin=0 / qpmax=69 / qpstep=4 / cplxblur=20.0 / qblur=0.5 / ip_ratio=1.40 / pb_ratio=1.30 / aq=1 / aq-strength=0.90 / aq-sensitivity=10.00 / aq-ifactor=1.00 / aq-pfactor=1.00 / aq-bfactor=1.00 / aq2=0
Language                                 : Japanese
Default                                  : Yes
Forced                                   : No

Audio
ID                                       : 2
Format                                   : AC-3
Format/Info                              : Audio Coding 3
Commercial name                          : Dolby Digital
Codec ID                                 : A_AC3
Duration                                 : 1 h 58 min
Bit rate mode                            : Constant
Bit rate                                 : 640 kb/s
Channel(s)                               : 6 channels
Channel layout                           : L R C LFE Ls Rs
Sampling rate                            : 48.0 kHz
Frame rate                               : 31.250 FPS (1536 SPF)
Bit depth                                : 16 bits
Compression mode                         : Lossy
Stream size                              : 544 MiB (5%)
Language                                 : Japanese
Service kind                             : Complete Main
Default                                  : Yes
Forced                                   : No

Text #1
ID                                       : 3
Format                                   : UTF-8
Codec ID                                 : S_TEXT/UTF8
Codec ID/Info                            : UTF-8 Plain Text
Duration                                 : 1 h 58 min
Bit rate                                 : 41 b/s
Count of elements                        : 1416
Stream size                              : 36.4 KiB (0%)
Language                                 : English
Default                                  : Yes
Forced                                   : Yes

Text #2
ID                                       : 4
Format                                   : UTF-8
Codec ID                                 : S_TEXT/UTF8
Codec ID/Info                            : UTF-8 Plain Text
Duration                                 : 1 h 51 min
Bit rate                                 : 37 b/s
Count of elements                        : 1402
Stream size                              : 30.3 KiB (0%)
Title                                    : Simplified
Language                                 : Chinese
Default                                  : No
Forced                                   : No

Text #3
ID                                       : 5
Format                                   : UTF-8
Codec ID                                 : S_TEXT/UTF8
Codec ID/Info                            : UTF-8 Plain Text
Duration                                 : 1 h 51 min
Bit rate                                 : 37 b/s
Count of elements                        : 1402
Stream size                              : 30.3 KiB (0%)
Title                                    : Traditional
Language                                 : Chinese
Default                                  : No
Forced                                   : No

Menu
00:00:00.000                             : en:第 01 章
00:07:05.125                             : en:第 02 章
00:11:52.166                             : en:第 03 章
00:19:16.125                             : en:第 04 章
00:25:32.625                             : en:第 05 章
00:30:44.291                             : en:第 06 章
00:39:21.625                             : en:第 07 章
00:43:46.750                             : en:第 08 章
00:49:46.458                             : en:第 09 章
00:54:51.375                             : en:第 10 章
00:58:34.583                             : en:第 11 章
01:04:44.125                             : en:第 12 章
01:09:24.291                             : en:第 13 章
01:14:52.875                             : en:第 14 章
01:22:24.833                             : en:第 15 章
01:32:34.041                             : en:第 16 章
01:40:04.083                             : en:第 17 章
01:51:43.958                             : en:第 18 章




                                                                                                                                                                                                        
                                                                                                                                                                                                                                          
7ae08e77acb875e11253d3983c8bf01b.zip (50.27 KB, 下载次数: 0)

回复

使用道具 举报

小黑屋|百度云资源论坛 |网站地图

本网站所有资源来自网络,如无意中侵犯了您的权益,请发邮件至 [email protected],立即清除相关链接

GMT+8, 2020-9-23 13:44 , Processed in 0.101498 second(s), 23 queries .

Powered by Discuz! X3.2

© 2001-2013 Comsenz Inc.

快速回复 返回顶部 返回列表