百度云资源论坛

 找回密码
 立即注册
搜索

骄傲的玛丽/骄傲玛丽 Proud.Mary.2018.1080p.BluRay.x264.DTS-HD.MA.5.1-...

[复制链接]
百度云资源 发表于 2020-9-14 10:42:27 | 显示全部楼层 |阅读模式
帖子完整标题:骄傲的玛丽/骄傲玛丽 Proud.Mary.2018.1080p.BluRay.x264.DTS-HD.MA.5.1-FGT 7.05GB




◎译  名 骄傲的玛丽/骄傲玛丽
◎片  名 Proud Mary
◎年  代 2018
◎产  地 美国
◎类  别 动作 / 惊悚
◎语  言 英语
◎上映日期 2018-01-12(美国)
◎IMDb评分  4.9/10 from 8466 users
◎片  长 89分钟
◎导  演 巴巴克·纳加非 Babak Najafi
◎编  剧 约翰·斯图尔特·纽曼 John Stuart Newman / 克里斯蒂安·斯韦加尔 Christian Swegal / 史蒂芬·安汀 Steven Antin
◎主  演 塔拉吉·P·汉森 Taraji P. Henson
       比利·布朗 Billy Brown
       贾西·迪阿洛·温斯顿 Jahi Di'Allo Winston
       尼尔·麦克唐纳 Neal McDonough
       玛格丽特·艾弗瑞 Margaret Avery
       山德·贝克利 Xander Berkeley
       拉德·舍博德兹加 Rade Serbedzija
       埃里克·拉雷·哈维 Erik LaRay Harvey
       丹尼·格洛弗 Danny Glover
       阿多布勒·艾比阿玛 Adobuere Ebiama
       欧文·伯克 Owen Burke
       博·克利里 Bo Cleary
       特蕾莎·普雷恩 Therese Plaehn
       詹姆斯·麦洛德 James Milord
       亚历克斯·珀腾克 Alex Portenko
       弗拉基米尔·奥尔洛夫 Vladimir Orlov
       陈大卫 David Chen
       吉姆·福特 Jim Ford
       阿德里安·M·蒙波因特 Adrian M. Mompoint

◎标  签 动作 | 美国 | 犯罪 | 2018 | 黑人 | 美国电影 | 黑帮 | 电影

◎简  介

  Taraji P.Henson主演动作片#骄傲的玛丽#发布预告,演了Cookie、卡姐等厉害角色后,这次Henson直接变女杀手,预告大半时间在光鲜换装、物色武器。当然杀手片的任务总会出错,玛丽碰上了一个小男孩,激发出强悍下的母爱。《伦敦陷落》导演Babak Najafi执导,明年1月12日北美上映。
Video
ID                                       : 1
Format                                   : AVC
Format/Info                              : Advanced Video Codec
Format profile                           : 1
Format settings                          : CABAC / 5 Ref Frames
Format settings, CABAC                   : Yes
Format settings, ReFrames                : 5 frames
Codec ID                                 : V_MPEG4/ISO/AVC
Duration                                 : 1 h 29 min
Bit rate                                 : 9 034 kb/s
Width                                    : 1 920 pixels
Height                                   : 800 pixels
Display aspect ratio                     : 2.40:1
Frame rate mode                          : Constant
Frame rate                               : 23.976 (24000/1001/189150) FPS
Color space                              : YUV
Chroma subsampling                       : 4:2:0
Bit depth                                : 8 bits
Scan type                                : Progressive
Bits/(Pixel*Frame)                       : 0.245
Stream size                              : 5.62 GiB (80%)
Title                                    : Proud.Mary.2018.1080p.BluRay.x264.DTS-HD.MA.5.1-FGT
Writing library                          : x264 core 155 r2901 7d0ff22
Encoding settings                        : cabac=1 / ref=5 / deblock=1:-3:-3 / analyse=0x3:0x133 / me=umh / subme=8 / psy=1 / psy_rd=1.00:0.00 / mixed_ref=1 / me_range=16 / chroma_me=1 / trellis=1 / 8x8dct=1 / cqm=0 / deadzone=21,11 / fast_pskip=0 / chroma_qp_offset=-2 / threads=25 / lookahead_threads=4 / sliced_threads=0 / nr=0 / decimate=1 / interlaced=0 / bluray_compat=0 / constrained_intra=0 / bframes=3 / b_pyramid=2 / b_adapt=1 / b_bias=0 / direct=3 / weightb=1 / open_gop=0 / weightp=2 / keyint=250 / keyint_min=23 / scenecut=40 / intra_refresh=0 / rc_lookahead=50 / rc=2pass / mbtree=1 / bitrate=9034 / ratetol=1.0 / qcomp=0.60 / qpmin=0 / qpmax=69 / qpstep=4 / cplxblur=20.0 / qblur=0.5 / vbv_maxrate=62500 / vbv_bufsize=78125 / nal_hrd=none / filler=0 / ip_ratio=1.40 / aq=1:1.00
Default                                  : Yes
Forced                                   : No

Audio
ID                                       : 2
Format                                   : DTS
Format/Info                              : Digital Theater Systems
Format profile                           : MA / Core
Codec ID                                 : A_DTS
Duration                                 : 1 h 29 min
Bit rate mode                            : Variable / Constant
Bit rate                                 : 2 250 kb/s / 1 509 kb/s
Channel(s)                               : 6 channels
Channel positions                        : Front: L C R, Side: L R, LFE
Sampling rate                            : 48.0 kHz
Frame rate                               : 93.750 FPS (512 SPF)
Bit depth                                : 16 bits
Compression mode                         : Lossless / Lossy
Stream size                              : 1.40 GiB (20%)
Title                                    : Proud.Mary.2018.1080p.BluRay.x264.DTS-HD.MA.5.1-FGT
Language                                 : English
Default                                  : Yes
Forced                                   : No

Text #1
ID                                       : 3
Format                                   : UTF-8
Codec ID                                 : S_TEXT/UTF8
Codec ID/Info                            : UTF-8 Plain Text
Duration                                 : 1 h 21 min
Bit rate                                 : 46 b/s
Count of elements                        : 911
Stream size                              : 27.8 KiB (0%)
Title                                    : English-SRT
Language                                 : English
Default                                  : Yes
Forced                                   : No

Text #2
ID                                       : 4
Format                                   : PGS
Muxing mode                              : zlib
Codec ID                                 : S_HDMV/PGS
Codec ID/Info                            : Picture based subtitle format used on BDs/HD-DVDs
Duration                                 : 1 h 27 min
Bit rate                                 : 32.8 kb/s
Count of elements                        : 2324
Stream size                              : 20.5 MiB (0%)
Title                                    : English-PGS
Language                                 : English
Default                                  : No
Forced                                   : No

Text #3
ID                                       : 5
Format                                   : PGS
Muxing mode                              : zlib
Codec ID                                 : S_HDMV/PGS
Codec ID/Info                            : Picture based subtitle format used on BDs/HD-DVDs
Duration                                 : 1 h 21 min
Bit rate                                 : 27.5 kb/s
Count of elements                        : 1809
Stream size                              : 16.1 MiB (0%)
Title                                    : English-SDH-PGS
Language                                 : English
Default                                  : No
Forced                                   : No

Text #4
ID                                       : 6
Format                                   : PGS
Muxing mode                              : zlib
Codec ID                                 : S_HDMV/PGS
Codec ID/Info                            : Picture based subtitle format used on BDs/HD-DVDs
Duration                                 : 1 h 26 min
Bit rate                                 : 20.8 kb/s
Count of elements                        : 1707
Stream size                              : 12.9 MiB (0%)
Title                                    : French-PGS
Language                                 : French
Default                                  : No
Forced                                   : No

Text #5
ID                                       : 7
Format                                   : PGS
Muxing mode                              : zlib
Codec ID                                 : S_HDMV/PGS
Codec ID/Info                            : Picture based subtitle format used on BDs/HD-DVDs
Duration                                 : 1 h 25 min
Bit rate                                 : 55 b/s
Count of elements                        : 4
Stream size                              : 34.9 KiB (0%)
Title                                    : French-SDH-PGS
Language                                 : French
Default                                  : No
Forced                                   : No

Text #6
ID                                       : 8
Format                                   : PGS
Muxing mode                              : zlib
Codec ID                                 : S_HDMV/PGS
Codec ID/Info                            : Picture based subtitle format used on BDs/HD-DVDs
Duration                                 : 1 h 28 min
Bit rate                                 : 23.3 kb/s
Count of elements                        : 1708
Stream size                              : 14.8 MiB (0%)
Title                                    : Spanish-PGS
Language                                 : Spanish
Default                                  : No
Forced                                   : No

Menu
00:00:00.000                             : en:00:00:00.000
00:03:22.661                             : en:00:03:22.661
00:09:20.226                             : en:00:09:20.226
00:15:58.374                             : en:00:15:58.374
00:22:10.246                             : en:00:22:10.246
00:28:13.734                             : en:00:28:13.734
00:33:54.199                             : en:00:33:54.199
00:37:56.357                             : en:00:37:56.357
00:45:15.254                             : en:00:45:15.254
00:50:40.246                             : en:00:50:40.246
00:55:58.188                             : en:00:55:58.188
00:59:59.262                             : en:00:59:59.262
01:05:13.118                             : en:01:05:13.118
01:10:28.724                             : en:01:10:28.724
01:15:46.542                             : en:01:15:46.542
01:20:09.346                             : en:01:20:09.346




                                                                                                                                                                                                        
                                                                                                                                                                                                                                          
3f09b97179124327745950dbddf2b7ff.zip (71.98 KB, 下载次数: 0)

回复

使用道具 举报

小黑屋|百度云资源论坛 |网站地图

本网站所有资源来自网络,如无意中侵犯了您的权益,请发邮件至 [email protected],立即清除相关链接

GMT+8, 2020-9-29 09:12 , Processed in 0.111742 second(s), 23 queries .

Powered by Discuz! X3.2

© 2001-2013 Comsenz Inc.

快速回复 返回顶部 返回列表