百度云资源论坛

 找回密码
 立即注册
搜索

窥镜/偷窥十号房 Looking.Glass.2018.1080p.BluRay.x264.DTS-HD.MA.5.1-FGT...

[复制链接]
百度云资源 发表于 2020-9-14 10:42:27 | 显示全部楼层 |阅读模式
帖子完整标题:窥镜/偷窥十号房 Looking.Glass.2018.1080p.BluRay.x264.DTS-HD.MA.5.1-FGT 11.81GB




◎译  名 窥镜/偷窥十号房(台)
◎片  名 Looking Glass
◎年  代 2018
◎产  地 美国
◎类  别 惊悚
◎语  言 英语
◎上映日期 2018-02-16(美国)
◎IMDb评分  4.6/10 from 5353 users
◎片  长 103分钟
◎编  剧 杰瑞·拉普 Jerry Rapp / 马修·怀尔德 Matthew Wilder
◎主  演 尼古拉斯·凯奇 Nicolas Cage
       罗宾·汤尼 Robin Tunney
       马克·布鲁卡斯 Marc Blucas
       Ernie Lively
       雅克·格雷 Jacque Gray

◎标  签 惊悚 | 悬疑 | 美国 | 犯罪 | 尼古拉斯凯奇 | 尼古拉斯·凯奇 | 2018 | 美国电影

◎简  介

  尼古拉斯·凯奇出演独立制作惊悚片《窥镜》(Looking Glass,暂译)。导演为曾拍摄多部MV及广告的多里·奥斯科维兹,编剧杰里·莱普、马修·怀尔德。一对夫妇在经历生活伤痛后买下了荒郊僻壤一处汽车旅馆,他们此举是为了探秘旅馆一个房间内发生的一系列无法解释的怪事。影片今秋开机。
Video
ID                                       : 1
Format                                   : AVC
Format/Info                              : Advanced Video Codec
Format settings                          : CABAC / 4 Ref Frames
Format settings, CABAC                   : Yes
Format settings, ReFrames                : 4 frames
Codec ID                                 : V_MPEG4/ISO/AVC
Duration                                 : 1 h 43 min
Bit rate                                 : 14.5 Mb/s
Width                                    : 1 920 pixels
Height                                   : 1 080 pixels
Display aspect ratio                     : 16:9
Frame rate mode                          : Constant
Frame rate                               : 23.976 (24000/1001/189150) FPS
Color space                              : YUV
Chroma subsampling                       : 4:2:0
Bit depth                                : 8 bits
Scan type                                : Progressive
Bits/(Pixel*Frame)                       : 0.291
Stream size                              : 10.5 GiB (89%)
Title                                    : Looking.Glass.2018.1080p.BluRay.x264.DTS-HD.MA.5.1-FGT
Writing library                          : x264 core 149 r2771+45 509cceb 7mod  
Encoding settings                        : cabac=1 / ref=4 / deblock=1:-3:-3 / analyse=0x3:0x113 / me=umh / subme=10 / psy=1 / fade_compensate=0.00 / psy_rd=0.90:0.10 / mixed_ref=1 / me_range=48 / chroma_me=1 / trellis=2 / 8x8dct=1 / cqm=0 / deadzone=21,11 / fast_pskip=0 / chroma_qp_offset=-2 / threads=12 / lookahead_threads=2 / sliced_threads=0 / nr=0 / decimate=1 / interlaced=0 / bluray_compat=0 / constrained_intra=0 / fgo=0 / bframes=8 / b_pyramid=2 / b_adapt=2 / b_bias=0 / direct=3 / weightb=1 / open_gop=0 / weightp=2 / keyint=250 / keyint_min=23 / scenecut=40 / intra_refresh=0 / rc_lookahead=40 / rc=crf / mbtree=0 / crf=20.5000 / qcomp=0.70 / qpmin=0:0:0 / qpmax=69:69:69 / qpstep=4 / vbv_maxrate=35000 / vbv_bufsize=35000 / crf_max=0.0 / nal_hrd=none / filler=0 / ip_ratio=1.40 / pb_ratio=1.30 / aq=3:1.00 / aq-sensitivity=10.00 / aq-factor=1.00:1.00:1.00 / aq2=0 / aq3=2:[0.50:0.50]:[0.50:0.50]:[0.50:0.50]:[0.50:0.50] / aq3-sensitivity=10.00 / aq3-factor=[1.00:1.00]:[1.00:1.00]:[1.00:1.00] / aq3-boundary=192:64:24
Language                                 : English
Default                                  : Yes
Forced                                   : No
Color range                              : Limited
Matrix coefficients                      : BT.709

Audio
ID                                       : 2
Format                                   : DTS
Format/Info                              : Digital Theater Systems
Format profile                           : MA / Core
Codec ID                                 : A_DTS
Duration                                 : 1 h 43 min
Bit rate mode                            : Variable / Constant
Bit rate                                 : 1 830 kb/s / 1 509 kb/s
Channel(s)                               : 6 channels
Channel positions                        : Front: L C R, Side: L R, LFE
Sampling rate                            : 48.0 kHz
Frame rate                               : 93.750 FPS (512 SPF)
Bit depth                                : 16 bits
Compression mode                         : Lossless / Lossy
Stream size                              : 1.32 GiB (11%)
Title                                    : Looking.Glass.2018.1080p.BluRay.x264.DTS-HD.MA.5.1-FGT
Language                                 : English
Default                                  : Yes
Forced                                   : No

Text #1
ID                                       : 3
Format                                   : UTF-8
Codec ID                                 : S_TEXT/UTF8
Codec ID/Info                            : UTF-8 Plain Text
Duration                                 : 1 h 37 min
Bit rate                                 : 40 b/s
Count of elements                        : 787
Stream size                              : 29.2 KiB (0%)
Title                                    : English-SRT
Language                                 : English
Default                                  : Yes
Forced                                   : No

Text #2
ID                                       : 4
Format                                   : PGS
Muxing mode                              : zlib
Codec ID                                 : S_HDMV/PGS
Codec ID/Info                            : Picture based subtitle format used on BDs/HD-DVDs
Duration                                 : 1 h 42 min
Bit rate                                 : 29.2 kb/s
Count of elements                        : 1948
Stream size                              : 21.4 MiB (0%)
Title                                    : English-PGS
Language                                 : English
Default                                  : No
Forced                                   : No

Menu
00:00:00.000                             : en:Chapter 01
00:04:18.841                             : en:Chapter 02
00:10:04.562                             : en:Chapter 03
00:17:02.771                             : en:Chapter 04
00:24:42.105                             : en:Chapter 05
00:32:08.760                             : en:Chapter 06
00:40:35.015                             : en:Chapter 07
00:45:33.439                             : en:Chapter 08
00:53:29.497                             : en:Chapter 09
01:01:07.080                             : en:Chapter 10
01:05:08.112                             : en:Chapter 11
01:10:38.901                             : en:Chapter 12
01:18:02.844                             : en:Chapter 13
01:27:03.843                             : en:Chapter 14
01:32:52.775                             : en:Chapter 15
01:40:57.968                             : en:Chapter 16





d98f67a42b6bc91d1c392f6a60495ed1.zip (60.54 KB, 下载次数: 0)

回复

使用道具 举报

小黑屋|百度云资源论坛 |网站地图

本网站所有资源来自网络,如无意中侵犯了您的权益,请发邮件至 [email protected],立即清除相关链接

GMT+8, 2021-1-27 18:40 , Processed in 0.296934 second(s), 23 queries .

Powered by Discuz! X3.2

© 2001-2013 Comsenz Inc.

快速回复 返回顶部 返回列表