百度云资源论坛

 找回密码
 立即注册
搜索

王子 The.Prince.2019.SPANISH.1080p.BluRay.x264.DD5.1-CHD 7.52GB

[复制链接]
百度云电影 发表于 2020-7-18 09:15:10 | 显示全部楼层 |阅读模式
帖子完整标题:王子 The.Prince.2019.SPANISH.1080p.BluRay.x264.DD5.1-CHD 7.52GB




◎译  名 王子 / The Prince
◎片  名 El Príncipe
◎年  代 2019
◎产  地 智利 / 阿根廷 / 比利时
◎类  别 剧情 / 同性
◎语  言 西班牙语
◎上映日期 2019-09-01(威尼斯电影节)
◎片  长 96分钟
◎导  演 塞巴斯蒂安·穆尼奥斯 Sebastián Mu?oz
◎编  剧 塞巴斯蒂安·穆尼奥斯 Sebastián Mu?oz / Luis Barrales
◎主  演 阿尔佛莱德·卡斯特罗 Alfredo Castro
       加斯顿·保尔斯 Gastón Pauls
       Sebastián Ayala
       Lucas Balmaceda
       Jaime Leiva
       Juan Carlos Maldonado
       Catalina Martin
       Cesare Serra
       Paola Volpato
       Nicolás Zárate
       Paula Zú?iga


◎标  签 同性 | 智利 | LGBT | 2019 | 犯罪 | 爱情 | 剧情 | 智利电影

◎简  介   

  影片聚焦上世纪70年代动荡不定的智利,酒吧中被称为“王子”的红人杰米(马尔多纳多饰),与强大的老囚犯“种马”(卡斯特罗饰)建立了看似不可能的恋情。

◎获奖情况  

  第76届威尼斯电影节(2019)
  国际影评人周奖(提名) 塞巴斯蒂安·穆尼奥斯
  酷儿狮奖 塞巴斯蒂安·穆尼奥斯

  第67届圣塞巴斯蒂安国际电影节(2019)
  地平线大奖(提名) 塞巴斯蒂安·穆尼奥斯
Video
ID                                       : 1
Format                                   : AVC
Format/Info                              : Advanced Video Codec
Format settings                          : CABAC / 4 Ref Frames
Format settings, CABAC                   : Yes
Format settings, Reference frames        : 4 frames
Codec ID                                 : V_MPEG4/ISO/AVC
Duration                                 : 1 h 35 min
Bit rate                                 : 10.8 Mb/s
Width                                    : 1 920 pixels
Height                                   : 1 028 pixels
Display aspect ratio                     : 1.85:1
Frame rate mode                          : Constant
Frame rate                               : 24.000 FPS
Color space                              : YUV
Chroma subsampling                       : 4:2:0
Bit depth                                : 8 bits
Scan type                                : Progressive
Bits/(Pixel*Frame)                       : 0.228
Stream size                              : 7.22 GiB (96%)
Writing library                          : x264 core 157 r2867+150 7e91e0e t_mod_Custom_2 [1 X86_64]
Encoding settings                        : cabac=1 / ref=4 / deblock=1:-3:-3 / analyse=0x3:0x133 / me=umh / subme=11 / psy=1 / fade_compensate=0.00 / psy_rd=0.90:0.10 / mixed_ref=1 / me_range=64 / chroma_me=1 / trellis=2 / 8x8dct=1 / cqm=0 / deadzone=21,11 / fast_pskip=0 / chroma_qp_offset=-4 / threads=32 / lookahead_threads=5 / sliced_threads=0 / nr=0 / decimate=1 / interlaced=0 / bluray_compat=0 / constrained_intra=0 / fgo=0 / bframes=8 / b_pyramid=2 / b_adapt=2 / b_bias=0 / direct=3 / weightb=1 / open_gop=0 / weightp=2 / keyint=250 / keyint_min=24 / scenecut=40 / intra_refresh=0 / rc_lookahead=60 / rc=crf / mbtree=0 / crf=17.0000 / qcomp=0.70 / qpmin=0:0:0 / qpmax=69:69:69 / qpstep=4 / vbv_maxrate=35000 / vbv_bufsize=35000 / crf_max=0.0 / nal_hrd=none / filler=0 / ip_ratio=1.40 / pb_ratio=1.30 / aq=3:1.00 / aq-sensitivity=10.00 / aq-factor=1.00:1.00:1.00 / aq2=0 / aq3=0
Language                                 : Spanish
Default                                  : Yes
Forced                                   : No

Audio
ID                                       : 2
Format                                   : AC-3
Format/Info                              : Audio Coding 3
Commercial name                          : Dolby Digital
Codec ID                                 : A_AC3
Duration                                 : 1 h 35 min
Bit rate mode                            : Constant
Bit rate                                 : 448 kb/s
Channel(s)                               : 6 channels
Channel layout                           : L R C LFE Ls Rs
Sampling rate                            : 48.0 kHz
Frame rate                               : 31.250 FPS (1536 SPF)
Bit depth                                : 16 bits
Compression mode                         : Lossy
Stream size                              : 307 MiB (4%)
Language                                 : Spanish
Service kind                             : Complete Main
Default                                  : Yes
Forced                                   : No

Text
ID                                       : 3
Format                                   : UTF-8
Codec ID                                 : S_TEXT/UTF8
Codec ID/Info                            : UTF-8 Plain Text
Duration                                 : 1 h 30 min
Bit rate                                 : 25 b/s
Count of elements                        : 703
Stream size                              : 17.1 KiB (0%)
Language                                 : English
Default                                  : Yes
Forced                                   : Yes

Menu
00:00:00.000                             : en:绗?01 绔?
00:10:00.000                             : en:绗?02 绔?
00:20:00.000                             : en:绗?03 绔?
00:30:00.000                             : en:绗?04 绔?
00:40:00.000                             : en:绗?05 绔?
00:50:00.000                             : en:绗?06 绔?
01:00:00.000                             : en:绗?07 绔?
01:10:00.000                             : en:绗?08 绔?
01:20:00.000                             : en:绗?09 绔?
01:30:00.000                             : en:绗?10 绔?




                                                                                                                                                                                                        
                                                                                                                                                                                                                                                                                                                                                                                                                                                                                                                                                                                                                                                                                                                                                                                                 9678c91701cfe4a340c7b76f9dff33ce.zip (38.28 KB, 下载次数: 0)

回复

使用道具 举报

小黑屋|百度云资源论坛 |网站地图

本网站所有资源来自网络,如无意中侵犯了您的权益,请发邮件至 [email protected],立即清除相关链接

GMT+8, 2020-8-4 07:54 , Processed in 0.101344 second(s), 23 queries .

Powered by Discuz! X3.2

© 2001-2013 Comsenz Inc.

快速回复 返回顶部 返回列表