百度云资源论坛

 找回密码
 立即注册
搜索

玉米地的小孩:大逃亡 Children.of.the.Corn.Runaway.2018.1080p.BluRay.x...

[复制链接]
百度云资源 发表于 2020-9-14 10:42:27 | 显示全部楼层 |阅读模式
帖子完整标题:玉米地的小孩:大逃亡 Children.of.the.Corn.Runaway.2018.1080p.BluRay.x264.DTS-HD.MA.5.1-FGT 7.74GB




◎译  名 玉米地的小孩:大逃亡
◎片  名 Children of the Corn: Runaway
◎年  代 2018
◎产  地 美国
◎类  别 恐怖
◎语  言 英语
◎上映日期 2018-03-13(美国)
◎片  长 82分钟
◎导  演 约翰·古拉格 John Gulager
◎编  剧 乔尔·苏瓦松 Joel Soisson
◎主  演 玛茜·米勒 Marci Miller
       Tyler Corbin

◎标  签 恐怖 | 惊悚 | 美国 | 2018 | 悬疑 | 美国电影 | 恐怖电影 | 电影

◎简  介

  年轻的孕妇露丝逃脱了凶残的儿童邪教。在接下来的十年里,她匿名生活,试图使儿子免遭她小时候所经历的恐怖,但有邪恶跟着她,现在,她必须面对邪恶,或者失去孩子……
Video
ID                                       : 1
Format                                   : AVC
Format/Info                              : Advanced Video Codec
Format settings                          : CABAC / 5 Ref Frames
Format settings, CABAC                   : Yes
Format settings, ReFrames                : 5 frames
Codec ID                                 : V_MPEG4/ISO/AVC
Duration                                 : 1 h 22 min
Bit rate                                 : 9 891 kb/s
Width                                    : 1 920 pixels
Height                                   : 816 pixels
Display aspect ratio                     : 2.35:1
Frame rate mode                          : Constant
Frame rate                               : 23.976 (24000/1001/189150) FPS
Color space                              : YUV
Chroma subsampling                       : 4:2:0
Bit depth                                : 8 bits
Scan type                                : Progressive
Bits/(Pixel*Frame)                       : 0.263
Stream size                              : 5.68 GiB (73%)
Title                                    : Children.of.the.Corn.Runaway.2018.1080p.BluRay.x264.DTS-HD.MA.5.1-FGT
Writing library                          : x264 core 155 r2901 7d0ff22
Encoding settings                        : cabac=1 / ref=5 / deblock=1:-3:-3 / analyse=0x3:0x113 / me=umh / subme=8 / psy=1 / psy_rd=1.00:0.25 / mixed_ref=1 / me_range=24 / chroma_me=1 / trellis=1 / 8x8dct=1 / cqm=0 / deadzone=21,11 / fast_pskip=1 / chroma_qp_offset=-4 / threads=25 / lookahead_threads=4 / sliced_threads=0 / nr=0 / decimate=1 / interlaced=0 / bluray_compat=0 / constrained_intra=0 / bframes=3 / b_pyramid=2 / b_adapt=1 / b_bias=0 / direct=3 / weightb=1 / open_gop=0 / weightp=2 / keyint=240 / keyint_min=24 / scenecut=40 / intra_refresh=0 / rc_lookahead=50 / rc=2pass / mbtree=1 / bitrate=9891 / ratetol=1.0 / qcomp=0.60 / qpmin=0 / qpmax=69 / qpstep=4 / cplxblur=20.0 / qblur=0.5 / ip_ratio=1.40 / aq=1:0.75
Default                                  : Yes
Forced                                   : No

Audio
ID                                       : 2
Format                                   : DTS
Format/Info                              : Digital Theater Systems
Format profile                           : MA / Core
Codec ID                                 : A_DTS
Duration                                 : 1 h 22 min
Bit rate mode                            : Variable / Constant
Bit rate                                 : 3 564 kb/s / 1 509 kb/s
Channel(s)                               : 6 channels
Channel positions                        : Front: L C R, Side: L R, LFE
Sampling rate                            : 48.0 kHz
Frame rate                               : 93.750 FPS (512 SPF)
Bit depth                                : 24 bits
Compression mode                         : Lossless / Lossy
Stream size                              : 2.05 GiB (26%)
Title                                    : Children.of.the.Corn.Runaway.2018.1080p.BluRay.x264.DTS-HD.MA.5.1-FGT
Language                                 : English
Default                                  : Yes
Forced                                   : No

Text #1
ID                                       : 3
Format                                   : UTF-8
Codec ID                                 : S_TEXT/UTF8
Codec ID/Info                            : UTF-8 Plain Text
Duration                                 : 1 h 18 min
Bit rate                                 : 33 b/s
Count of elements                        : 631
Stream size                              : 19.2 KiB (0%)
Title                                    : English-SRT
Language                                 : English
Default                                  : Yes
Forced                                   : No

Text #2
ID                                       : 4
Format                                   : PGS
Muxing mode                              : zlib
Codec ID                                 : S_HDMV/PGS
Codec ID/Info                            : Picture based subtitle format used on BDs/HD-DVDs
Duration                                 : 1 h 21 min
Bit rate                                 : 34.9 kb/s
Count of elements                        : 1754
Stream size                              : 20.5 MiB (0%)
Title                                    : English-PGS
Language                                 : English
Default                                  : No
Forced                                   : No

Text #3
ID                                       : 5
Format                                   : PGS
Muxing mode                              : zlib
Codec ID                                 : S_HDMV/PGS
Codec ID/Info                            : Picture based subtitle format used on BDs/HD-DVDs
Duration                                 : 1 h 18 min
Bit rate                                 : 25.2 kb/s
Count of elements                        : 1284
Stream size                              : 14.2 MiB (0%)
Title                                    : Spanish-PGS
Language                                 : Spanish
Default                                  : No
Forced                                   : No

Menu
00:00:00.000                             : en:00:00:00.000
00:05:10.018                             : en:00:05:10.018
00:10:15.532                             : en:00:10:15.532
00:14:30.495                             : en:00:14:30.495
00:19:23.537                             : en:00:19:23.537
00:25:54.386                             : en:00:25:54.386
00:31:35.143                             : en:00:31:35.143
00:39:47.093                             : en:00:39:47.093
00:46:18.484                             : en:00:46:18.484
00:50:34.782                             : en:00:50:34.782
00:55:10.766                             : en:00:55:10.766
00:59:11.131                             : en:00:59:11.131
01:05:29.843                             : en:01:05:29.843
01:11:12.268                             : en:01:11:12.268
01:17:20.386                             : en:01:17:20.386
01:19:25.678                             : en:01:19:25.678




                                                                                                                                                                                                        


75cf048fce8262469b0d1b7842742ddf.zip (78.95 KB, 下载次数: 0)

回复

使用道具 举报

小黑屋|百度云资源论坛 |网站地图

本网站所有资源来自网络,如无意中侵犯了您的权益,请发邮件至 [email protected],立即清除相关链接

GMT+8, 2021-1-27 17:43 , Processed in 0.099591 second(s), 23 queries .

Powered by Discuz! X3.2

© 2001-2013 Comsenz Inc.

快速回复 返回顶部 返回列表