百度云资源论坛

 找回密码
 立即注册
搜索

潜伏4:锁命亡灵 Insidious.The.Last.Key.2018.1080p.BluRay.x264.DTS-HD.MA....

[复制链接]
百度云资源 发表于 2020-9-14 10:42:27 | 显示全部楼层 |阅读模式
帖子完整标题:潜伏4:锁命亡灵 Insidious.The.Last.Key.2018.1080p.BluRay.x264.DTS-HD.MA.5.1-FGT 8.13GB




◎译  名 潜伏4:锁命亡灵/Insidious: Chapter 4/儿凶 第四回(港)/潜伏4/潜伏4:最后的线索/潜伏4:最后的钥匙/阴儿房第4章:锁命亡灵(台)
◎片  名 Insidious: The Last Key
◎年  代 2018
◎产  地 美国,加拿大
◎类  别 惊悚 / 恐怖
◎语  言 英语
◎上映日期 2018-01-05(美国)
◎IMDb评分  5.7/10 from 50397 users
◎片  长 103分钟
◎导  演 亚当·罗比特尔 Adam Robitel
◎编  剧 雷·沃纳尔 Leigh Whannell
◎主  演 林·沙烨 Lin Shaye
       雷·沃纳尔 Leigh Whannell
       安格斯·桑普森 Angus Sampson
       柯克·埃斯沃多 Kirk Acevedo
       凯特琳·杰拉德 Caitlin Gerard
       史宾塞·洛克 Spencer Locke
       乔什·斯图沃特 Josh Stewart
       特莎·费勒 Tessa Ferrer
       阿勒奎·里德 Aleque Reid
       艾娃·寇克尔 Ava Kolker
       皮尔斯·波普 Pierce Pope
       布鲁斯·戴维森 Bruce Davison
       哈维尔·博泰特 Javier Botet
       马库斯·亨德森 Marcus Henderson
       阿曼达·亚罗斯 Amanda Jaros
       泰·辛普金斯 Ty Simpkins
       哈娜·海耶斯 Hana Hayes

◎标  签 恐怖 | 惊悚 | 美国 | 灵异 | 悬疑 | 2018 | 超现实 | 親情

◎简  介

  《阴儿房第3章:从灵开始》琳雪伊回归饰演超自然心理学家,由《失魂记忆》导演亚当罗勃提尔执导、《阴儿房》系列原创团队之一的雷沃纳尔执笔剧本、鬼才导演温子仁将担任制片,打造极致惊悚的最新经典。
  
  《阴儿房第4章:锁命亡灵》不仅将带来恐怖加倍的全新故事,制片规模亦更较以往全面升级,导演受访时表示:「开拍前我甚至派特效师至美国费城一座有两百年历史的废弃监狱考察,我相信唯有体验过那种压迫黑暗且气氛极难承受的环境,我们才能真实呈现出囚禁那种最骇人的场景。」
  
  故事讲述,灵媒爱丽丝在一次偶然的案件调查中,却意外将他带回最不愿面对的过往,更被迫面对内心最害怕的秘密,「恐惧是回家唯一的路?」。她将被迫「回家」面对内心深处最恐惧的黑暗阴影。
  
  在《阴儿房》系列扮演灵媒的琳雪伊无疑是贯穿电影的灵魂角色,全新作品《阴儿房第4章:锁命亡灵》中将揭露更多关于她的背景叙述,琳雪伊表示:「这次的故事会把很多大家的疑问都解释清楚,例如为何爱丽丝能成为与灵界沟通的角色,以及更多在这种『天赋』下她所承受的苦难与不愿面对的过程,我相信粉丝将会更能同理与对这个角色感到更深的共鸣。」
Video
ID                                       : 1
Format                                   : AVC
Format/Info                              : Advanced Video Codec
Format settings                          : CABAC / 5 Ref Frames
Format settings, CABAC                   : Yes
Format settings, ReFrames                : 5 frames
Codec ID                                 : V_MPEG4/ISO/AVC
Duration                                 : 1 h 43 min
Bit rate                                 : 9 084 kb/s
Width                                    : 1 920 pixels
Height                                   : 808 pixels
Display aspect ratio                     : 2.40:1
Frame rate mode                          : Constant
Frame rate                               : 23.976 (24000/1001/189150) FPS
Color space                              : YUV
Chroma subsampling                       : 4:2:0
Bit depth                                : 8 bits
Scan type                                : Progressive
Bits/(Pixel*Frame)                       : 0.244
Stream size                              : 6.56 GiB (81%)
Title                                    : Insidious.The.Last.Key.2018.1080p.BluRay.x264.DTS-HD.MA.5.1-FGT
Writing library                          : x264 core 155 r2901 7d0ff22
Encoding settings                        : cabac=1 / ref=5 / deblock=1:-3:-3 / analyse=0x3:0x133 / me=umh / subme=8 / psy=1 / psy_rd=1.00:0.00 / mixed_ref=1 / me_range=16 / chroma_me=1 / trellis=1 / 8x8dct=1 / cqm=0 / deadzone=21,11 / fast_pskip=0 / chroma_qp_offset=-2 / threads=25 / lookahead_threads=4 / sliced_threads=0 / nr=0 / decimate=1 / interlaced=0 / bluray_compat=0 / constrained_intra=0 / bframes=3 / b_pyramid=2 / b_adapt=1 / b_bias=0 / direct=3 / weightb=1 / open_gop=0 / weightp=2 / keyint=250 / keyint_min=23 / scenecut=40 / intra_refresh=0 / rc_lookahead=50 / rc=2pass / mbtree=1 / bitrate=9084 / ratetol=1.0 / qcomp=0.60 / qpmin=0 / qpmax=69 / qpstep=4 / cplxblur=20.0 / qblur=0.5 / vbv_maxrate=62500 / vbv_bufsize=78125 / nal_hrd=none / filler=0 / ip_ratio=1.40 / aq=1:1.00
Default                                  : Yes
Forced                                   : No

Audio
ID                                       : 2
Format                                   : DTS
Format/Info                              : Digital Theater Systems
Format profile                           : MA / Core
Codec ID                                 : A_DTS
Duration                                 : 1 h 43 min
Bit rate mode                            : Variable / Constant
Bit rate                                 : 2 151 kb/s / 1 509 kb/s
Channel(s)                               : 6 channels
Channel positions                        : Front: L C R, Side: L R, LFE
Sampling rate                            : 48.0 kHz
Frame rate                               : 93.750 FPS (512 SPF)
Bit depth                                : 16 bits
Compression mode                         : Lossless / Lossy
Stream size                              : 1.55 GiB (19%)
Title                                    : Insidious.The.Last.Key.2018.1080p.BluRay.x264.DTS-HD.MA.5.1-FGT
Language                                 : English
Default                                  : Yes
Forced                                   : No

Text #1
ID                                       : 3
Format                                   : UTF-8
Codec ID                                 : S_TEXT/UTF8
Codec ID/Info                            : UTF-8 Plain Text
Duration                                 : 1 h 34 min
Bit rate                                 : 34 b/s
Count of elements                        : 831
Stream size                              : 23.7 KiB (0%)
Title                                    : English-SRT
Language                                 : English
Default                                  : Yes
Forced                                   : No

Text #2
ID                                       : 4
Format                                   : PGS
Muxing mode                              : zlib
Codec ID                                 : S_HDMV/PGS
Codec ID/Info                            : Picture based subtitle format used on BDs/HD-DVDs
Duration                                 : 1 h 36 min
Bit rate                                 : 24.0 kb/s
Count of elements                        : 2051
Stream size                              : 16.6 MiB (0%)
Title                                    : English-PGS
Language                                 : English
Default                                  : No
Forced                                   : No

Text #3
ID                                       : 5
Format                                   : PGS
Muxing mode                              : zlib
Codec ID                                 : S_HDMV/PGS
Codec ID/Info                            : Picture based subtitle format used on BDs/HD-DVDs
Duration                                 : 1 h 34 min
Bit rate                                 : 20.5 kb/s
Count of elements                        : 1671
Stream size                              : 13.9 MiB (0%)
Title                                    : English-SDH-PGS
Language                                 : English
Default                                  : No
Forced                                   : No

Menu
00:00:00.000                             : en:00:00:00.000
00:16:21.397                             : en:00:16:21.397
00:19:55.111                             : en:00:19:55.111
00:22:29.056                             : en:00:22:29.056
00:29:03.617                             : en:00:29:03.617
00:36:24.307                             : en:00:36:24.307
00:44:05.685                             : en:00:44:05.685
00:54:14.168                             : en:00:54:14.168
00:57:21.855                             : en:00:57:21.855
01:02:08.183                             : en:01:02:08.183
01:05:17.664                             : en:01:05:17.664
01:10:17.964                             : en:01:10:17.964
01:16:58.239                             : en:01:16:58.239
01:22:11.593                             : en:01:22:11.593
01:29:49.467                             : en:01:29:49.467
01:34:34.252                             : en:01:34:34.252




                                                                                                                                                                                                        
                                                                                                                                                                                                                                          
b9164d3ec2569ea880c637278d5009fb.zip (82.82 KB, 下载次数: 0)

回复

使用道具 举报

小黑屋|百度云资源论坛 |网站地图

本网站所有资源来自网络,如无意中侵犯了您的权益,请发邮件至 [email protected],立即清除相关链接

GMT+8, 2021-1-27 19:08 , Processed in 0.106966 second(s), 23 queries .

Powered by Discuz! X3.2

© 2001-2013 Comsenz Inc.

快速回复 返回顶部 返回列表