百度云资源论坛

 找回密码
 立即注册
搜索

极限逃生 Exit.2019.KOREAN.1080p.BluRay.x264.DTS-CHD 11.47GB

[复制链接]
百度云电影 发表于 2020-9-14 10:42:27 | 显示全部楼层 |阅读模式
帖子完整标题:极限逃生 Exit.2019.KOREAN.1080p.BluRay.x264.DTS-CHD 11.47GB




◎译  名 极限逃生/EXIT/出口/逃出口
◎片  名 ???
◎年  代 2019
◎产  地 韩国
◎类  别 喜剧 / 动作 / 灾难
◎语  言 韩语
◎上映日期 2019-07-31(韩国)
◎IMDb评分  7/10 from 3308 users
◎片  长 103分钟
◎导  演 李相槿 Sang-geun Lee
◎编  剧 李相槿 Sang-geun Lee
◎主  演 曹政奭 Jeong-seok Cho
       林允儿 Yoona
       高斗心 Du-shim Ko
       朴仁焕 In-hwan Park
       金智英 Ji-yeong Kim
       裴侑蓝 Bae Yoo-ram
       姜其永 Ki-Young Kang
       李东辉 Dong-Hwi Lee
       金钟求 Kim Jong-goo
       金姜贤 Gang-Hyun Kim
       吴熙俊 Hee-joon Oh
       裴海善 Hae-sun Bae
       金景龙 Geong-ryong Kim
       黄孝恩 Hyo-eun Hwang
       金泰律 Tae-yool Kim
       金嫝勋 Kang Hoon Kim

◎标  签 韩国 | 喜剧 | 灾难 | 2019 | 动作 | 电影 | 大制作 | IMAX

◎简  介

  在大学时代,龙南曾是校内最强的攀岩选手,但是毕业后他的人生却“一路向下”。找不到工作的龙南只能依靠父母接济过活。马上就要到他母亲的七十大寿,龙南坚持要将庆祝仪式放在学妹仪珠工作的酒店中举办。在宴会厅,龙南和仪珠意外相遇,然而等待着他们的却是一场前所未有的灾难。当剧毒的气体充满首尔城区时,他们要通过自身的能力和攀岩技巧来逃出生天。

◎获奖情况

  第40届韩国电影青龙奖 ?(2019)
  最佳影片(提名) 李相槿
  最佳男主角(提名) 曹政奭
  最佳女主角(提名) 林允儿
  最佳新人导演 李相槿
  最佳摄影(提名)
  最佳剪辑(提名)
  最佳配乐(提名)
  技术奖
  
  第14届亚洲电影大奖 ?(2020)
  最佳新导演(提名) 李相槿
  
  第56届百想艺术大赏 ?(2020)
  电影类最佳影片(提名)
  电影类最佳男主角(提名) 曹政奭
  电影类最佳新人导演(提名) 李相槿
  电影类最佳编剧 李相槿
  电影类最佳艺术奖(提名)
  
  第56届韩国电影大钟奖 ?(2020)
  最佳新人导演(提名) 李相槿
  最佳企划(提名)
  最佳剪辑
  最佳技术奖(提名)
  
  第6届豆瓣电影年度榜单 ?(2019)
  最受关注的非院线电影(提名)
  评分最高的韩国电影(提名)
Video
ID                                       : 1
Format                                   : AVC
Format/Info                              : Advanced Video Codec
Format settings                          : CABAC / 4 Ref Frames
Format settings, CABAC                   : Yes
Format settings, Reference frames        : 4 frames
Codec ID                                 : V_MPEG4/ISO/AVC
Duration                                 : 1 h 43 min
Bit rate                                 : 14.3 Mb/s
Width                                    : 1 920 pixels
Height                                   : 804 pixels
Display aspect ratio                     : 2.40:1
Frame rate mode                          : Constant
Frame rate                               : 24.000 FPS
Color space                              : YUV
Chroma subsampling                       : 4:2:0
Bit depth                                : 8 bits
Scan type                                : Progressive
Bits/(Pixel*Frame)                       : 0.387
Stream size                              : 10.4 GiB (90%)
Writing library                          : x264 core 157 r2867+150 7e91e0e t_mod_Custom_2  
Encoding settings                        : cabac=1 / ref=4 / deblock=1:-3:-3 / analyse=0x3:0x133 / me=umh / subme=11 / psy=1 / fade_compensate=0.00 / psy_rd=0.90:0.10 / mixed_ref=1 / me_range=64 / chroma_me=1 / trellis=2 / 8x8dct=1 / cqm=0 / deadzone=21,11 / fast_pskip=0 / chroma_qp_offset=-4 / threads=25 / lookahead_threads=4 / sliced_threads=0 / nr=0 / decimate=1 / interlaced=0 / bluray_compat=0 / constrained_intra=0 / fgo=0 / bframes=8 / b_pyramid=2 / b_adapt=2 / b_bias=0 / direct=3 / weightb=1 / open_gop=0 / weightp=2 / keyint=250 / keyint_min=24 / scenecut=40 / intra_refresh=0 / rc_lookahead=60 / rc=crf / mbtree=0 / crf=18.0000 / qcomp=0.70 / qpmin=0:0:0 / qpmax=69:69:69 / qpstep=4 / vbv_maxrate=35000 / vbv_bufsize=35000 / crf_max=0.0 / nal_hrd=none / filler=0 / ip_ratio=1.40 / pb_ratio=1.30 / aq=3:1.00 / aq-sensitivity=10.00 / aq-factor=1.00:1.00:1.00 / aq2=0 / aq3=0
Language                                 : Korean
Default                                  : Yes
Forced                                   : No

Audio
ID                                       : 2
Format                                   : DTS
Format/Info                              : Digital Theater Systems
Codec ID                                 : A_DTS
Duration                                 : 1 h 43 min
Bit rate mode                            : Constant
Bit rate                                 : 1 509 kb/s
Channel(s)                               : 6 channels
Channel layout                           : C L R Ls Rs LFE
Sampling rate                            : 48.0 kHz
Frame rate                               : 93.750 FPS (512 SPF)
Bit depth                                : 16 bits
Compression mode                         : Lossy
Stream size                              : 1.09 GiB (10%)
Language                                 : Korean
Default                                  : Yes
Forced                                   : No

Text
ID                                       : 3
Format                                   : UTF-8
Codec ID                                 : S_TEXT/UTF8
Codec ID/Info                            : UTF-8 Plain Text
Duration                                 : 1 h 39 min
Bit rate                                 : 43 b/s
Count of elements                        : 1288
Stream size                              : 31.6 KiB (0%)
Language                                 : English
Default                                  : Yes
Forced                                   : No

Menu
00:00:00.000                             : en:绗?01 绔?
00:08:35.792                             : en:绗?02 绔?
00:17:02.750                             : en:绗?03 绔?
00:25:11.958                             : en:绗?04 绔?
00:33:40.042                             : en:绗?05 绔?
00:41:33.500                             : en:绗?06 绔?
00:51:15.542                             : en:绗?07 绔?
00:59:42.875                             : en:绗?08 绔?
01:09:06.042                             : en:绗?09 绔?
01:18:06.833                             : en:绗?10 绔?
01:26:13.167                             : en:绗?11 绔?
01:35:41.333                             : en:绗?12 绔?




                                                                                                                                                                                                        


4bf92890124d923be2c8fde13eef4690.zip (58.79 KB, 下载次数: 0)

回复

使用道具 举报

小黑屋|百度云资源论坛 |网站地图

本网站所有资源来自网络,如无意中侵犯了您的权益,请发邮件至 [email protected],立即清除相关链接

GMT+8, 2021-1-15 22:37 , Processed in 0.088975 second(s), 23 queries .

Powered by Discuz! X3.2

© 2001-2013 Comsenz Inc.

快速回复 返回顶部 返回列表