百度云资源论坛

 找回密码
 立即注册
搜索

同族/亲戚 Kin.2018.1080p.BluRay.x264.DTS-X.7.1-FGT 11.15GB

[复制链接]
百度云电影 发表于 2020-9-14 10:42:27 | 显示全部楼层 |阅读模式
帖子完整标题:同族/亲戚 Kin.2018.1080p.BluRay.x264.DTS-X.7.1-FGT 11.15GB




◎译  名 同族/亲戚/天煞重炮(港)/家族
◎片  名 Kin
◎年  代 2018
◎产  地 美国
◎类  别 动作 / 科幻 / 惊悚
◎语  言 英语
◎上映日期 2018-08-31(美国)
◎IMDb评分  5.8/10 from 13349 users
◎片  长 102分钟
◎导  演 乔纳森·贝克 Jonathan  Baker / 乔西·贝克 Josh Baker / 乔纳森·贝克 Jonathan Baker
◎编  剧 乔纳森·贝克 Jonathan  Baker / 乔西·贝克 Josh Baker / 丹·凯西 Daniel Casey / 乔纳森·贝克 Jonathan Baker
◎主  演 詹姆斯·弗兰科 James Franco
       佐伊·克罗维兹 Zo? Kravitz
       丹尼斯·奎德 Dennis Quaid
       凯莉·库恩 Carrie Coon
       杰克·莱诺 Jack Reynor
       马克·奥布莱恩 Mark O'Brien
       伊恩·马休斯 Ian Matthews
       肖恩·J·汉密尔顿 Shawn J. Hamilton
       高莉莉 Lili Gao
       乔纳森·切里 Jonathan Cherry
       罗曼诺·欧萨里 Romano Orzari
       迈尔斯·特鲁伊特 Myles Truitt
       布里·沃西伦科 Bree Wasylenko
       加万·福克斯 Gavin Fox
       玛德琳·格蕾丝 Madelyn Grace

◎标  签 科幻 | 美国 | 动作 | 犯罪 | 2018 | 超级武器 | 惊悚 | 剧情

◎简  介

  故事讲述一位前科犯人(杰克·莱诺 饰),被迫要跟被收养的兄弟一起逃亡,全然因为他们被一位报复心极强的罪犯(詹姆斯·弗兰科 饰)追捕。而兄弟俩保护自己的方式,就是找到神秘武器。
Video
ID                                       : 1
Format                                   : AVC
Format/Info                              : Advanced Video Codec
Format settings                          : CABAC / 5 Ref Frames
Format settings, CABAC                   : Yes
Format settings, Reference frames        : 5 frames
Codec ID                                 : V_MPEG4/ISO/AVC
Duration                                 : 1 h 42 min
Bit rate                                 : 9 131 kb/s
Width                                    : 1 920 pixels
Height                                   : 808 pixels
Display aspect ratio                     : 2.40:1
Frame rate mode                          : Constant
Frame rate                               : 23.976 (24000/1001/189150) FPS
Color space                              : YUV
Chroma subsampling                       : 4:2:0
Bit depth                                : 8 bits
Scan type                                : Progressive
Bits/(Pixel*Frame)                       : 0.245
Stream size                              : 6.56 GiB (59%)
Title                                    : Kin.2018.1080p.BluRay.x264.DTS-HD.MA.5.1-FGT
Writing library                          : x264 core 155 r2901 7d0ff22
Encoding settings                        : cabac=1 / ref=5 / deblock=1:0:0 / analyse=0x3:0x113 / me=umh / subme=8 / psy=1 / psy_rd=1.00:0.00 / mixed_ref=1 / me_range=16 / chroma_me=1 / trellis=1 / 8x8dct=1 / cqm=0 / deadzone=21,11 / fast_pskip=1 / chroma_qp_offset=-2 / threads=24 / lookahead_threads=4 / sliced_threads=0 / nr=0 / decimate=1 / interlaced=0 / bluray_compat=0 / constrained_intra=0 / bframes=3 / b_pyramid=2 / b_adapt=1 / b_bias=0 / direct=3 / weightb=1 / open_gop=0 / weightp=2 / keyint=240 / keyint_min=24 / scenecut=40 / intra_refresh=0 / rc_lookahead=50 / rc=2pass / mbtree=1 / bitrate=9131 / ratetol=1.0 / qcomp=0.60 / qpmin=0 / qpmax=69 / qpstep=4 / cplxblur=20.0 / qblur=0.5 / ip_ratio=1.40 / aq=1:1.00
Language                                 : English
Default                                  : Yes
Forced                                   : No

Audio
ID                                       : 2
Format                                   : DTS XLL X
Format/Info                              : Digital Theater Systems
Commercial name                          : DTS-HD Master Audio
Codec ID                                 : A_DTS
Duration                                 : 1 h 42 min
Bit rate mode                            : Variable
Bit rate                                 : 6 332 kb/s
Channel(s)                               : 8 channels
Channel(s)_Original                      : Object Based
ChannelLayout_Original                   : Object Based
Sampling rate                            : 48.0 kHz
Frame rate                               : 93.750 FPS (512 SPF)
Bit depth                                : 24 bits
Stream size                              : 4.55 GiB (41%)
Title                                    : Kin.2018.1080p.BluRay.x264.DTS-HD.MA.5.1-FGT
Language                                 : English
Default                                  : Yes
Forced                                   : No

Text #1
ID                                       : 3
Format                                   : UTF-8
Codec ID                                 : S_TEXT/UTF8
Codec ID/Info                            : UTF-8 Plain Text
Duration                                 : 1 h 34 min
Bit rate                                 : 40 b/s
Count of elements                        : 1027
Stream size                              : 28.3 KiB (0%)
Title                                    : English-SRT
Language                                 : English
Default                                  : Yes
Forced                                   : No

Text #2
ID                                       : 4
Format                                   : UTF-8
Codec ID                                 : S_TEXT/UTF8
Codec ID/Info                            : UTF-8 Plain Text
Duration                                 : 1 h 35 min
Bit rate                                 : 48 b/s
Count of elements                        : 1292
Stream size                              : 34.3 KiB (0%)
Title                                    : English-SDH-SRT
Language                                 : English
Default                                  : No
Forced                                   : No

Text #3
ID                                       : 5
Format                                   : PGS
Muxing mode                              : zlib
Codec ID                                 : S_HDMV/PGS
Codec ID/Info                            : Picture based subtitle format used on BDs/HD-DVDs
Duration                                 : 1 h 34 min
Bit rate                                 : 28.3 kb/s
Count of elements                        : 2144
Stream size                              : 19.2 MiB (0%)
Title                                    : English-PGS
Language                                 : English
Default                                  : No
Forced                                   : No

Text #4
ID                                       : 6
Format                                   : PGS
Muxing mode                              : zlib
Codec ID                                 : S_HDMV/PGS
Codec ID/Info                            : Picture based subtitle format used on BDs/HD-DVDs
Duration                                 : 1 h 35 min
Bit rate                                 : 34.8 kb/s
Count of elements                        : 2586
Stream size                              : 23.9 MiB (0%)
Title                                    : English-SDH-PGS
Language                                 : English
Default                                  : No
Forced                                   : No

Text #5
ID                                       : 7
Format                                   : PGS
Muxing mode                              : zlib
Codec ID                                 : S_HDMV/PGS
Codec ID/Info                            : Picture based subtitle format used on BDs/HD-DVDs
Duration                                 : 1 h 34 min
Bit rate                                 : 25.5 kb/s
Count of elements                        : 2030
Stream size                              : 17.3 MiB (0%)
Title                                    : Spanish-PGS
Language                                 : Spanish
Default                                  : No
Forced                                   : No

Menu
00:00:00.000                             : en:00:00:00.000
00:07:23.735                             : en:00:07:23.735
00:12:34.712                             : en:00:12:34.712
00:20:44.451                             : en:00:20:44.451
00:27:27.813                             : en:00:27:27.813
00:31:57.123                             : en:00:31:57.123
00:36:39.781                             : en:00:36:39.781
00:41:57.849                             : en:00:41:57.849
00:50:09.548                             : en:00:50:09.548
00:56:57.497                             : en:00:56:57.497
01:05:01.356                             : en:01:05:01.356
01:08:01.369                             : en:01:08:01.369
01:13:58.601                             : en:01:13:58.601
01:17:52.209                             : en:01:17:52.209
01:25:58.737                             : en:01:25:58.737
01:34:28.955                             : en:01:34:28.955




                                                                                                                                                                                                        
                                                                                                                                                                                                                                          
5a3c63bc8ad773846591ad319cea0558.zip (57.16 KB, 下载次数: 0)

回复

使用道具 举报

小黑屋|百度云资源论坛 |网站地图

本网站所有资源来自网络,如无意中侵犯了您的权益,请发邮件至 [email protected],立即清除相关链接

GMT+8, 2021-1-15 22:34 , Processed in 0.109412 second(s), 23 queries .

Powered by Discuz! X3.2

© 2001-2013 Comsenz Inc.

快速回复 返回顶部 返回列表