百度云资源论坛

 找回密码
 立即注册
搜索

拯救列宁格勒 Saving.Leningrad.2019.RUSSIAN.1080p.BluRay.x264.DTS-EDPH 1...

[复制链接]
百度云电影 发表于 2020-9-13 19:34:53 | 显示全部楼层 |阅读模式
帖子完整标题:拯救列宁格勒 Saving.Leningrad.2019.RUSSIAN.1080p.BluRay.x264.DTS-EDPH 14.16GB




◎译  名 拯救列宁格勒/Saving Leningrad
◎片  名 Спасти Ленинград
◎年  代 2019
◎产  地 俄罗斯
◎类  别 剧情 / 爱情 / 战争
◎语  言 俄语
◎上映日期 2019-01-27(俄罗斯)
◎IMDb评分  5.8/10 from 934 users
◎片  长 96分钟
◎导  演 阿列克谢·科茨洛夫 Aleksey Kozlov
◎编  剧 阿列克谢·科茨洛夫 Aleksey Kozlov
◎主  演 安德烈·米罗诺夫-乌达洛夫 Andrey Mironov-Udalov
       玛丽亚·梅尔尼科娃 Maria Melnikova
       阿纳斯塔西娅·梅利尼科娃 Anastasiya Melnikova
       杰拉·梅斯希 Gela Meskhi
       谢尔盖·扎尔科夫 Sergey Zharkov

◎标  签 二战 | 战争 | 俄罗斯 | 苏德战争 | 2019 | 历史 | 剧情 | 爱情

◎简  介

  1941年9月,在一场战役中,年轻的情侣克斯特亚和纳斯特亚发现自己登上了一艘驳船,将人们从被围困的列宁格勒撤离。晚上,驳船遇到风暴。当它开始下沉时,敌机——但不是救援人员——最先到达现场
Video
ID                                       : 1
Format                                   : AVC
Format/Info                              : Advanced Video Codec
Format settings                          : CABAC / 5 Ref Frames
Format settings, CABAC                   : Yes
Format settings, Reference frames        : 5 frames
Codec ID                                 : V_MPEG4/ISO/AVC
Duration                                 : 1 h 37 min
Bit rate                                 : 19.3 Mb/s
Width                                    : 1 920 pixels
Height                                   : 804 pixels
Display aspect ratio                     : 2.40:1
Frame rate mode                          : Constant
Frame rate                               : 24.000 FPS
Color space                              : YUV
Chroma subsampling                       : 4:2:0
Bit depth                                : 8 bits
Scan type                                : Progressive
Bits/(Pixel*Frame)                       : 0.521
Stream size                              : 13.1 GiB (93%)
Writing library                          : x264 core 160 r3009 4c9b076
Encoding settings                        : cabac=1 / ref=5 / deblock=1:-3:-3 / analyse=0x3:0x133 / me=umh / subme=11 / psy=1 / psy_rd=1.00:0.00 / mixed_ref=1 / me_range=32 / chroma_me=1 / trellis=2 / 8x8dct=1 / cqm=0 / deadzone=21,11 / fast_pskip=0 / chroma_qp_offset=-2 / threads=9 / lookahead_threads=2 / sliced_threads=0 / nr=0 / decimate=0 / interlaced=0 / bluray_compat=0 / constrained_intra=0 / bframes=16 / b_pyramid=2 / b_adapt=2 / b_bias=0 / direct=3 / weightb=1 / open_gop=0 / weightp=2 / keyint=250 / keyint_min=24 / scenecut=40 / intra_refresh=0 / rc_lookahead=250 / rc=crf / mbtree=0 / crf=15.8 / qcomp=0.65 / qpmin=0 / qpmax=69 / qpstep=4 / vbv_maxrate=62500 / vbv_bufsize=78125 / crf_max=0.0 / nal_hrd=none / filler=0 / ip_ratio=1.30 / pb_ratio=1.20 / aq=3:0.75 / zones=1494,1814,crf=14/8953,10131,crf=14/11851,12207,crf=14/21052,21166,crf=14/28496,28633,crf=14/34753,34817,crf=14/36433,37710,crf=14/46750,47399,crf=14/48248,50342,crf=14/53932,55117,crf=14/64872,65154,crf=14/71808,71863,crf=14/78968,84199,crf=14/84371,86425,crf=14/99507,99806,crf=14/108630,108745,crf=14/113370,114098,crf=14/121459,122774,crf=14/77076,77439,crf=14
Language                                 : English
Default                                  : Yes
Forced                                   : No
Color range                              : Limited
Color primaries                          : BT.709
Matrix coefficients                      : BT.709

Audio
ID                                       : 2
Format                                   : DTS
Format/Info                              : Digital Theater Systems
Codec ID                                 : A_DTS
Duration                                 : 1 h 37 min
Bit rate mode                            : Constant
Bit rate                                 : 1 509 kb/s
Channel(s)                               : 6 channels
Channel layout                           : C L R Ls Rs LFE
Sampling rate                            : 48.0 kHz
Frame rate                               : 93.750 FPS (512 SPF)
Bit depth                                : 24 bits
Compression mode                         : Lossy
Stream size                              : 1.02 GiB (7%)
Language                                 : Russian
Default                                  : Yes
Forced                                   : No

Text #1
ID                                       : 3
Format                                   : UTF-8
Codec ID                                 : S_TEXT/UTF8
Codec ID/Info                            : UTF-8 Plain Text
Duration                                 : 1 h 30 min
Bit rate                                 : 46 b/s
Count of elements                        : 988
Stream size                              : 31.0 KiB (0%)
Language                                 : English
Default                                  : Yes
Forced                                   : No

Text #2
ID                                       : 4
Format                                   : PGS
Muxing mode                              : zlib
Codec ID                                 : S_HDMV/PGS
Codec ID/Info                            : Picture based subtitle format used on BDs/HD-DVDs
Duration                                 : 1 h 28 min
Bit rate                                 : 32.8 kb/s
Count of elements                        : 1952
Stream size                              : 20.8 MiB (0%)
Language                                 : German
Default                                  : No
Forced                                   : No

Text #3
ID                                       : 5
Format                                   : PGS
Muxing mode                              : zlib
Codec ID                                 : S_HDMV/PGS
Codec ID/Info                            : Picture based subtitle format used on BDs/HD-DVDs
Duration                                 : 1 h 30 min
Bit rate                                 : 24.0 kb/s
Count of elements                        : 1837
Stream size                              : 15.5 MiB (0%)
Title                                    : Simplified Chinese
Language                                 : Chinese
Default                                  : No
Forced                                   : No

Text #4
ID                                       : 6
Format                                   : PGS
Muxing mode                              : zlib
Codec ID                                 : S_HDMV/PGS
Codec ID/Info                            : Picture based subtitle format used on BDs/HD-DVDs
Duration                                 : 1 h 30 min
Bit rate                                 : 24.8 kb/s
Count of elements                        : 1837
Stream size                              : 16.0 MiB (0%)
Title                                    : Traditional Chinese
Language                                 : Chinese
Default                                  : No
Forced                                   : No

Menu
00:00:00.000                             : :Chapter 01
00:03:01.750                             : :Chapter 02
00:09:04.625                             : :Chapter 03
00:15:37.333                             : :Chapter 04
00:22:33.750                             : :Chapter 05
00:30:36.625                             : :Chapter 06
00:34:29.833                             : :Chapter 07
00:38:24.542                             : :Chapter 08
00:43:42.250                             : :Chapter 09
00:48:45.917                             : :Chapter 10
00:53:19.875                             : :Chapter 11
00:58:40.917                             : :Chapter 12
01:07:26.042                             : :Chapter 13
01:13:26.750                             : :Chapter 14
01:18:02.542                             : :Chapter 15
01:22:38.417                             : :Chapter 16
01:26:42.583                             : :Chapter 17
01:30:54.708                             : :Chapter 18




                                                                                                                                                                                                        
                                                                                                                                                                                                                                          
ee1ebb7cef38b62d7264fd04b38eaf6a.zip (72.29 KB, 下载次数: 0)

回复

使用道具 举报

小黑屋|百度云资源论坛 |网站地图

本网站所有资源来自网络,如无意中侵犯了您的权益,请发邮件至 [email protected],立即清除相关链接

GMT+8, 2020-9-23 14:22 , Processed in 0.101574 second(s), 23 queries .

Powered by Discuz! X3.2

© 2001-2013 Comsenz Inc.

快速回复 返回顶部 返回列表