百度云资源论坛

 找回密码
 立即注册
搜索

证人/5时恭候的证人 Innocent.Witness.2019.KOREAN.1080p.BluRay.x264.DTS...

[复制链接]
百度云电影 发表于 2020-9-13 19:34:53 | 显示全部楼层 |阅读模式
帖子完整标题:证人/5时恭候的证人 Innocent.Witness.2019.KOREAN.1080p.BluRay.x264.DTS-WMD 11.30GB




◎译  名 证人/5时恭候的证人(港)/Innocent Witness
◎片  名 ??
◎年  代 2019
◎产  地 韩国
◎类  别 剧情 / 犯罪
◎语  言 韩语
◎上映日期 2019-02-13(韩国)
◎片  长 129分钟
◎导  演 李翰 Han Lee
◎编  剧 文智媛 Ji-won Moon
◎主  演 郑雨盛 Woo-sung Jung
       金香起 Hyang-ki Kim
       李奎炯 Kyu-hyung Lee
       廉惠兰 Yum Hye-ran
       张荣男 Young-nam Jang
       郑元中 Won-jung Jeong
       金钟秀 Jong-soo Kim
       金学善 Hak-seon Kim
       宋允儿 Yun-ah Song
       吴在世 Jae-se Oh
       姜智贤 Ji-hyun Kang
       郑道元 Do-won Jung
       金炯默 Hyeong-mook Kim
       李瑞准 Seo-joon Lee

◎标  签 韩国 | 人性 | 温情 | 犯罪 | 法律 | 剧情 | 悬疑 | 2019

◎简  介

  讲述负责杀人案件的辩护律师顺浩和看到事件的证人智友之间的故事,智友是个自闭症患者。

◎获奖情况

  第40届韩国电影青龙奖 ?(2019)
  最佳男主角 郑雨盛
  
  第55届百想艺术大赏 ?(2019)
  电影类大赏 郑雨盛
  电影类最佳男主角(提名) 郑雨盛
  电影类最佳女主角(提名) 金香起
  电影类最佳女配角(提名) 廉惠兰
  电影类最佳编剧(提名) 文智媛
  
  第56届韩国电影大钟奖 ?(2020)
  最佳影片(提名)
  最佳男主角(提名) 郑雨盛
  最佳女主角(提名) 金香起
  最佳女配角(提名) 廉惠兰
  最佳剧本(提名) 文智媛
  最佳摄影(提名)
  
  第6届豆瓣电影年度榜单 ?(2019)
  评分最高的韩国电影(提名)
Video
ID                                       : 1
Format                                   : AVC
Format/Info                              : Advanced Video Codec
Format settings                          : CABAC / 5 Ref Frames
Format settings, CABAC                   : Yes
Format settings, Reference frames        : 5 frames
Codec ID                                 : V_MPEG4/ISO/AVC
Duration                                 : 2 h 9 min
Bit rate                                 : 10.8 Mb/s
Width                                    : 1 920 pixels
Height                                   : 804 pixels
Display aspect ratio                     : 2.40:1
Frame rate mode                          : Constant
Frame rate                               : 23.976 (24000/1001/189150) FPS
Color space                              : YUV
Chroma subsampling                       : 4:2:0
Bit depth                                : 8 bits
Scan type                                : Progressive
Bits/(Pixel*Frame)                       : 0.293
Stream size                              : 9.78 GiB (87%)
Title                                    : Innocent.Witness.2019.1080p.BluRay.DTS.x264-WMD
Writing library                          : x264 core 160 r3009 4c9b076
Encoding settings                        : cabac=1 / ref=5 / deblock=1:-3:-3 / analyse=0x3:0x113 / me=umh / subme=10 / psy=1 / psy_rd=1.00:0.00 / mixed_ref=0 / me_range=32 / chroma_me=1 / trellis=2 / 8x8dct=1 / cqm=0 / deadzone=21,11 / fast_pskip=0 / chroma_qp_offset=-2 / threads=6 / lookahead_threads=1 / sliced_threads=0 / nr=0 / decimate=0 / interlaced=0 / bluray_compat=0 / constrained_intra=0 / bframes=11 / b_pyramid=2 / b_adapt=1 / b_bias=0 / direct=1 / weightb=1 / open_gop=0 / weightp=1 / keyint=250 / keyint_min=23 / scenecut=40 / intra_refresh=0 / rc=crf / mbtree=0 / crf=13.5 / qcomp=0.65 / qpmin=0 / qpmax=69 / qpstep=4 / ip_ratio=1.40 / pb_ratio=1.30 / aq=2:1.00
Language                                 : Korean
Default                                  : Yes
Forced                                   : No

Audio #1
ID                                       : 2
Format                                   : DTS
Format/Info                              : Digital Theater Systems
Codec ID                                 : A_DTS
Duration                                 : 2 h 9 min
Bit rate mode                            : Constant
Bit rate                                 : 1 509 kb/s
Channel(s)                               : 6 channels
Channel layout                           : C L R Ls Rs LFE
Sampling rate                            : 48.0 kHz
Frame rate                               : 93.750 FPS (512 SPF)
Bit depth                                : 24 bits
Compression mode                         : Lossy
Stream size                              : 1.36 GiB (12%)
Language                                 : Korean
Default                                  : Yes
Forced                                   : No

Audio #2
ID                                       : 3
Format                                   : AAC LC
Format/Info                              : Advanced Audio Codec Low Complexity
Codec ID                                 : A_AAC-2
Duration                                 : 2 h 9 min
Bit rate                                 : 144 kb/s
Channel(s)                               : 2 channels
Channel layout                           : L R
Sampling rate                            : 48.0 kHz
Frame rate                               : 46.875 FPS (1024 SPF)
Compression mode                         : Lossy
Stream size                              : 132 MiB (1%)
Title                                    : Commentary by Director Lee Han, Jung Woo-sung, Kim Hyang-gi, Lee Kyoo-hyung, Yum Hye-ran
Language                                 : Korean
Default                                  : No
Forced                                   : No

Text #1
ID                                       : 4
Format                                   : UTF-8
Codec ID                                 : S_TEXT/UTF8
Codec ID/Info                            : UTF-8 Plain Text
Duration                                 : 2 h 4 min
Bit rate                                 : 51 b/s
Count of elements                        : 1607
Stream size                              : 46.6 KiB (0%)
Title                                    : SRT
Language                                 : English
Default                                  : Yes
Forced                                   : No

Text #2
ID                                       : 5
Format                                   : PGS
Muxing mode                              : zlib
Codec ID                                 : S_HDMV/PGS
Codec ID/Info                            : Picture based subtitle format used on BDs/HD-DVDs
Duration                                 : 2 h 4 min
Bit rate                                 : 44.4 kb/s
Count of elements                        : 2339
Stream size                              : 39.6 MiB (0%)
Language                                 : English
Default                                  : No
Forced                                   : No

Text #3
ID                                       : 6
Format                                   : PGS
Muxing mode                              : zlib
Codec ID                                 : S_HDMV/PGS
Codec ID/Info                            : Picture based subtitle format used on BDs/HD-DVDs
Duration                                 : 2 h 2 min
Bit rate                                 : 43.4 kb/s
Count of elements                        : 2763
Stream size                              : 38.1 MiB (0%)
Language                                 : Korean
Default                                  : No
Forced                                   : No

Menu
00:00:00.000                             : :Chapter 01
00:15:40.648                             : :Chapter 02
00:27:52.004                             : :Chapter 03
00:39:59.647                             : :Chapter 04
00:53:22.950                             : :Chapter 05
01:03:48.700                             : :Chapter 06
01:13:14.056                             : :Chapter 07
01:30:39.684                             : :Chapter 08
01:50:30.624                             : :Chapter 09
01:58:46.202                             : :Chapter 10
02:05:02.578                             : :Chapter 11




                                                                                                                                                                                                        
                                                                                                                                                                                                                                          
bd0bf08122eb6948826fa08c0bb7ae34.zip (57.96 KB, 下载次数: 0)

回复

使用道具 举报

小黑屋|百度云资源论坛 |网站地图

本网站所有资源来自网络,如无意中侵犯了您的权益,请发邮件至 [email protected],立即清除相关链接

GMT+8, 2020-9-29 07:50 , Processed in 0.103659 second(s), 23 queries .

Powered by Discuz! X3.2

© 2001-2013 Comsenz Inc.

快速回复 返回顶部 返回列表