百度云资源论坛

 找回密码
 立即注册
搜索

心理测量者SS1:罪与罚/PSYCHO-PASS|SS 第一部 Psycho-Pass.Sinners.of.the.System.Cas ...

[复制链接]
百度云电影 发表于 2020-9-12 10:16:35 | 显示全部楼层 |阅读模式
-->
帖子完整标题:心理测量者SS1:罪与罚/PSYCHO-PASS|SS 第一部 Psycho-Pass.Sinners.of.the.System.Case.1.2019.JAPANESE.1080p.BluRay.x264.DTS-WiKi 4.87GB




◎译  名 心理测量者SS1:罪与罚/PSYCHO-PASS|SS 第一部/心理测量者之系统罪人1:罪与罚
◎片  名 PSYCHO-PASS サイコパス Sinners of the System Case.1「罪と罰」
◎年  代 2019
◎产  地 日本
◎类  别 动作 / 动画 / 犯罪
◎语  言 日语
◎上映日期 2019-01-25(日本)
◎IMDb评分  6.6/10 from 321 users
◎  https://www.imdb.com/title/tt10443844/
◎豆瓣评分 7.1/10 from 3146 users
◎ 
◎片  长 59分钟
◎导  演 盐谷直义 Naoyoshi Shiotani
◎编  剧 吉上亮 Ryo Yoshigami
◎主  演 野岛健儿 Kenji Nojima
       佐仓绫音 Ayane Sakura
       平井祥惠 Hirai Sachie
       冈宽惠 Hiroe Oka
       小山力也 Rikiya Koyama
       齐藤贵美子 Kimiko Sait?
       多田野曜平 Tadano Youhei
       中川庆一 Nakagawa Keiichi
       花泽香菜 Kana Hanazawa
       东地宏树 Hiroki Touchi
       樱井孝宏 Takahiro Sakurai
       伊藤静 Shizuka Ito
       泽城美雪 Miyuki Sawashiro

◎标  签 日本 | PSYCHO-PASS | 科幻 | 剧场版 | 动画 | 犯罪 | 日本动画 | 动漫

◎简  介

  2117年冬、公安局ビルに一台の暴走車両が突入する事件が発生。その運転手は青森にある潜在犯隔離施設〈サンクチュアリ〉の心理カウンセラー?夜坂泉だった。しかし取調べ直前に夜坂の即時送還が決定する。 監視官の霜月美佳は、執行官?宜野座伸元らとともに夜坂送還のため青森へ向かう。 そこで待っていたのは、〈偽りの楽園〉だった。
Video
ID                                       : 1
Format                                   : AVC
Format/Info                              : Advanced Video Codec
Format profile                           : [email protected]
Format settings                          : CABAC / 4 Ref Frames
Format settings, CABAC                   : Yes
Format settings, Reference frames        : 4 frames
Codec ID                                 : V_MPEG4/ISO/AVC
Duration                                 : 1 h 0 min
Bit rate                                 : 10 000 kb/s
Width                                    : 1 920 pixels
Height                                   : 1 080 pixels
Display aspect ratio                     : 16:9
Frame rate mode                          : Constant
Frame rate                               : 23.976 (24000/1001/189150) FPS
Color space                              : YUV
Chroma subsampling                       : 4:2:0
Bit depth                                : 8 bits
Scan type                                : Progressive
Bits/(Pixel*Frame)                       : 0.201
Stream size                              : 4.20 GiB (86%)
Writing library                          : x264 core 130 r2273 b3065e6
Encoding settings                        : cabac=1 / ref=4 / deblock=1:-1:-1 / analyse=0x3:0x113 / me=umh / subme=11 / psy=1 / psy_rd=1.00:0.00 / mixed_ref=1 / me_range=32 / chroma_me=1 / trellis=2 / 8x8dct=1 / cqm=0 / deadzone=21,11 / fast_pskip=0 / chroma_qp_offset=-4 / threads=12 / lookahead_threads=2 / sliced_threads=0 / nr=0 / decimate=0 / interlaced=0 / bluray_compat=0 / constrained_intra=0 / bframes=8 / b_pyramid=2 / b_adapt=2 / b_bias=0 / direct=3 / weightb=1 / open_gop=0 / weightp=2 / keyint=250 / keyint_min=23 / scenecut=40 / intra_refresh=0 / rc=2pass / mbtree=0 / bitrate=10000 / ratetol=1.0 / qcomp=0.60 / qpmin=0 / qpmax=69 / qpstep=4 / cplxblur=20.0 / qblur=0.5 / ip_ratio=1.40 / pb_ratio=1.30 / aq=1:0.90
Language                                 : English
Default                                  : Yes
Forced                                   : No

Audio
ID                                       : 2
Format                                   : DTS
Format/Info                              : Digital Theater Systems
Codec ID                                 : A_DTS
Duration                                 : 1 h 0 min
Bit rate mode                            : Constant
Bit rate                                 : 1 509 kb/s
Channel(s)                               : 6 channels
Channel layout                           : C L R Ls Rs LFE
Sampling rate                            : 48.0 kHz
Frame rate                               : 93.750 FPS (512 SPF)
Bit depth                                : 16 bits
Compression mode                         : Lossy
Stream size                              : 649 MiB (13%)
Title                                    : 日语
Language                                 : Japanese
Default                                  : Yes
Forced                                   : No

Text
ID                                       : 3
Format                                   : UTF-8
Codec ID                                 : S_TEXT/UTF8
Codec ID/Info                            : UTF-8 Plain Text
Duration                                 : 57 min 59 s
Bit rate                                 : 81 b/s
Count of elements                        : 878
Stream size                              : 34.7 KiB (0%)
Language                                 : English
Default                                  : Yes
Forced                                   : No




                                                                                                                                                                                                        
                                                                                                                                                                                                                                                                                                                                                                                                                                                                                                                                                                                                                                                                                                                                                                                                                                                        
f6497ab448bd9073a8c7701d88e1127e.zip (50.23 KB, 下载次数: 0)

回复

使用道具 举报

小黑屋|百度云资源论坛 |网站地图

本网站所有资源来自网络,如无意中侵犯了您的权益,请发邮件至 [email protected],立即清除相关链接

GMT+8, 2021-1-15 21:49 , Processed in 0.131425 second(s), 23 queries .

Powered by Discuz! X3.2

© 2001-2013 Comsenz Inc.

快速回复 返回顶部 返回列表