百度云资源论坛

 找回密码
 立即注册
搜索

猫与月亮 The.Cat.And.The.Moon.2019.1080p.BluRay.x264.DTS-HD.MA.5.1-CHD 12.13GB . ...

[复制链接]
百度云电影 发表于 2020-9-12 10:16:35 | 显示全部楼层 |阅读模式
-->
帖子完整标题:猫与月亮 The.Cat.And.The.Moon.2019.1080p.BluRay.x264.DTS-HD.MA.5.1-CHD 12.13GB




◎译  名 猫与月亮
◎片  名 The Cat and the Moon
◎年  代 2020
◎产  地 美国
◎类  别 剧情
◎语  言 英语
◎上映日期 2019-07-31(圣安东尼奥电影节)
◎IMDb评分  5.6/10 from 279 users
◎  https://www.imdb.com/title/tt5360232/
◎豆瓣评分 6.1/10 from 132 users
◎ 
◎片  长 114分钟
◎导  演 亚历克斯·沃尔夫 Alex Wolff
◎编  剧 亚历克斯·沃尔夫 Alex Wolff
◎主  演 亚历克斯·沃尔夫 Alex Wolff
       斯凯勒·吉桑多 Skyler Gisondo
       迈克·艾普斯 Mike Epps
       斯蒂芬妮娅·欧文 Stefania Owen
       朱利安·亚奥·焦耶洛 Giullian Yao Gioiello
       昆西·查德 Quincy Chad
       汤米·尼尔森 Tommy Nelson
       奥利维娅·博勒姆-温 Olivia Boreham-Wing

◎标  签 美国 | 青春 | 剧情 | 2019 | 校园 | D亚历克斯·沃尔夫 | 美国电影 | 凑数

◎简  介

  亚历克斯·沃尔夫(《勇敢者游戏》《恐袭波士顿》)将执导个人首部电影长片《猫与月亮》(The Cat and the Moon),他自己编写剧本并担任主演,卡司还包括米莎·巴顿、迈克·艾普斯(《星路多懊悔》《生化危机3》)、斯凯勒·吉桑多(《小镇滋味》《博物馆奇妙夜3》)、斯蒂芬妮娅·欧文(《可爱的骨头》《凯莉日记》)、汤米·尼尔森(《月升王国》)等。
  
  讲述青少年尼克(沃尔夫)来到纽约,与已故父亲的爵士音乐家朋友卡尔(艾普斯)暂时居住在一起,他的母亲在康复中心生活。在此期间,尼克结交了一群朋友,见识到了纽约的多样性。巴顿饰演Jessica Petersen,吉桑多饰演Seamus,欧文饰演Eliza,尼尔森饰演Russell。
Video
ID                                       : 1
Format                                   : AVC
Format/Info                              : Advanced Video Codec
Format profile                           : [email protected]
Format settings                          : CABAC / 4 Ref Frames
Format settings, CABAC                   : Yes
Format settings, Reference frames        : 4 frames
Codec ID                                 : V_MPEG4/ISO/AVC
Duration                                 : 1 h 54 min
Bit rate                                 : 12.0 Mb/s
Width                                    : 1 920 pixels
Height                                   : 806 pixels
Display aspect ratio                     : 2.40:1
Frame rate mode                          : Constant
Frame rate                               : 23.976 (24000/1001/189150) FPS
Color space                              : YUV
Chroma subsampling                       : 4:2:0
Bit depth                                : 8 bits
Scan type                                : Progressive
Bits/(Pixel*Frame)                       : 0.323
Stream size                              : 9.56 GiB (79%)
Writing library                          : x264 core 157 r2867+150 7e91e0e t_mod_Custom_2 [[email protected] X86_64]
Encoding settings                        : cabac=1 / ref=4 / deblock=1:-3:-3 / analyse=0x3:0x133 / me=umh / subme=11 / psy=1 / fade_compensate=0.00 / psy_rd=1.00:0.00 / mixed_ref=1 / me_range=64 / chroma_me=1 / trellis=2 / 8x8dct=1 / cqm=0 / deadzone=21,11 / fast_pskip=0 / chroma_qp_offset=-3 / threads=24 / lookahead_threads=4 / sliced_threads=0 / nr=0 / decimate=1 / interlaced=0 / bluray_compat=0 / constrained_intra=0 / fgo=0 / bframes=9 / b_pyramid=2 / b_adapt=2 / b_bias=0 / direct=3 / weightb=1 / open_gop=0 / weightp=2 / keyint=250 / keyint_min=23 / scenecut=40 / intra_refresh=0 / rc=2pass / mbtree=0 / bitrate=12000 / ratetol=1.0 / qcomp=0.70 / qpmin=0:0:0 / qpmax=69:69:69 / qpstep=4 / cplxblur=20.0 / qblur=0.5 / ip_ratio=1.40 / pb_ratio=1.30 / aq=3:1.00 / aq-sensitivity=10.00 / aq-factor=1.00:1.00:1.00 / aq2=0 / aq3=0
Language                                 : English
Default                                  : Yes
Forced                                   : No

Audio
ID                                       : 2
Format                                   : DTS XLL
Format/Info                              : Digital Theater Systems
Commercial name                          : DTS-HD Master Audio
Codec ID                                 : A_DTS
Duration                                 : 1 h 54 min
Bit rate mode                            : Variable
Bit rate                                 : 3 223 kb/s
Channel(s)                               : 6 channels
Channel layout                           : C L R Ls Rs LFE
Sampling rate                            : 48.0 kHz
Frame rate                               : 93.750 FPS (512 SPF)
Bit depth                                : 24 bits
Compression mode                         : Lossless
Stream size                              : 2.57 GiB (21%)
Language                                 : English
Default                                  : Yes
Forced                                   : No

Text
ID                                       : 3
Format                                   : UTF-8
Codec ID                                 : S_TEXT/UTF8
Codec ID/Info                            : UTF-8 Plain Text
Duration                                 : 1 h 49 min
Bit rate                                 : 63 b/s
Count of elements                        : 2165
Stream size                              : 50.8 KiB (0%)
Language                                 : English
Default                                  : Yes
Forced                                   : No




                                                                                                                                                                                                        
                                                                                                                                                                                                                                                                                                                                                                                                                                                                                                                                                                                                                                                                                                                                                                                                                                                        
a7ff81240b105000cf5115163a5b07d1.zip (62.14 KB, 下载次数: 0)

回复

使用道具 举报

小黑屋|百度云资源论坛 |网站地图

本网站所有资源来自网络,如无意中侵犯了您的权益,请发邮件至 [email protected],立即清除相关链接

GMT+8, 2021-1-15 21:47 , Processed in 0.133397 second(s), 23 queries .

Powered by Discuz! X3.2

© 2001-2013 Comsenz Inc.

快速回复 返回顶部 返回列表