百度云资源论坛

 找回密码
 立即注册
搜索

失意旅行 Tolo.Tolo.2020.ITALIAN.1080p.BluRay.x264.DTS-FGT 8.61GB

[复制链接]
百度云电影 发表于 2020-9-11 13:08:10 | 显示全部楼层 |阅读模式
帖子完整标题:失意旅行 Tolo.Tolo.2020.ITALIAN.1080p.BluRay.x264.DTS-FGT 8.61GB




◎译  名 失意旅行
◎片  名 Tolo Tolo
◎年  代 2020
◎产  地 意大利
◎类  别 喜剧 / 家庭
◎语  言 意大利语
◎上映日期 2020-01-01(意大利)
◎IMDb评分  6/10 from 1915 users
◎片  长 90分钟
◎编  剧 切柯·扎罗内 Checco Zalone / 保罗·维尔齐 Paolo Virzì
◎主  演 切柯·扎罗内 Checco Zalone
       安东内拉·阿蒂利 Antonella Attili
       尼古拉·诺切拉 Nicola Nocella
       芭芭拉·布薛特 Barbara Bouchet
       Nicola Di Bari

◎标  签 意大利 | 喜剧 | 讽刺 | 移民 | 意大利风格

◎简  介

  暂无相关剧情介绍
Video
ID                                       : 1
Format                                   : AVC
Format/Info                              : Advanced Video Codec
Format settings                          : CABAC / 4 Ref Frames
Format settings, CABAC                   : Yes
Format settings, Reference frames        : 4 frames
Codec ID                                 : V_MPEG4/ISO/AVC
Duration                                 : 1 h 34 min
Bit rate                                 : 11.5 Mb/s
Width                                    : 1 920 pixels
Height                                   : 804 pixels
Display aspect ratio                     : 2.40:1
Frame rate mode                          : Constant
Frame rate                               : 24.000 FPS
Color space                              : YUV
Chroma subsampling                       : 4:2:0
Bit depth                                : 8 bits
Scan type                                : Progressive
Bits/(Pixel*Frame)                       : 0.310
Stream size                              : 7.61 GiB (88%)
Title                                    : Tolo.Tolo.2020.ITALIAN.1080p.BluRay.x264.DTS-FGT
Writing library                          : x264 core 148 r2748 97eaef2
Encoding settings                        : cabac=1 / ref=4 / deblock=1:-2:-2 / analyse=0x3:0x113 / me=umh / subme=9 / psy=1 / psy_rd=1.00:0.15 / mixed_ref=1 / me_range=16 / chroma_me=1 / trellis=2 / 8x8dct=1 / cqm=0 / deadzone=21,11 / fast_pskip=1 / chroma_qp_offset=-3 / threads=24 / lookahead_threads=3 / sliced_threads=0 / nr=0 / decimate=1 / interlaced=0 / bluray_compat=0 / constrained_intra=0 / bframes=3 / b_pyramid=2 / b_adapt=1 / b_bias=0 / direct=3 / weightb=1 / open_gop=0 / weightp=2 / keyint=250 / keyint_min=25 / scenecut=40 / intra_refresh=0 / rc_lookahead=50 / rc=2pass / mbtree=1 / bitrate=11500 / ratetol=1.0 / qcomp=0.60 / qpmin=0 / qpmax=69 / qpstep=4 / cplxblur=20.0 / qblur=0.5 / vbv_maxrate=31250 / vbv_bufsize=31250 / nal_hrd=none / filler=0 / ip_ratio=1.40 / aq=1:1.00
Language                                 : Italian
Default                                  : Yes
Forced                                   : No

Audio
ID                                       : 2
Format                                   : DTS
Format/Info                              : Digital Theater Systems
Codec ID                                 : A_DTS
Duration                                 : 1 h 34 min
Bit rate mode                            : Constant
Bit rate                                 : 1 509 kb/s
Channel(s)                               : 6 channels
Channel layout                           : C L R Ls Rs LFE
Sampling rate                            : 48.0 kHz
Frame rate                               : 93.750 FPS (512 SPF)
Bit depth                                : 16 bits
Compression mode                         : Lossy
Stream size                              : 1 022 MiB (12%)
Title                                    : Tolo.Tolo.2020.ITALIAN.1080p.BluRay.x264.DTS-FGT
Language                                 : Italian
Default                                  : Yes
Forced                                   : No

Text
ID                                       : 3
Format                                   : UTF-8
Codec ID                                 : S_TEXT/UTF8
Codec ID/Info                            : UTF-8 Plain Text
Duration                                 : 1 h 27 min
Bit rate                                 : 52 b/s
Count of elements                        : 1088
Stream size                              : 33.8 KiB (0%)
Language                                 : English
Default                                  : Yes
Forced                                   : No

Menu
00:00:00.000                             : en:Chapter 01
00:05:16.166                             : en:Chapter 02
00:14:45.583                             : en:Chapter 03
00:23:34.666                             : en:Chapter 04
00:31:05.166                             : en:Chapter 05
00:38:45.541                             : en:Chapter 06
00:46:50.083                             : en:Chapter 07
00:54:32.750                             : en:Chapter 08
01:02:02.916                             : en:Chapter 09
01:09:51.625                             : en:Chapter 10
01:18:05.583                             : en:Chapter 11
01:25:40.250                             : en:Chapter 12




                                                                                                                                                                                                        


43039a2462329f78c3557b044b79eef0.zip (43.69 KB, 下载次数: 0)

回复

使用道具 举报

小黑屋|百度云资源论坛 |网站地图

本网站所有资源来自网络,如无意中侵犯了您的权益,请发邮件至 [email protected],立即清除相关链接

GMT+8, 2021-1-15 22:00 , Processed in 0.097358 second(s), 23 queries .

Powered by Discuz! X3.2

© 2001-2013 Comsenz Inc.

快速回复 返回顶部 返回列表