百度云资源论坛

 找回密码
 立即注册
搜索

[BD-4K] 职业枪手 The.Specialists.1969.ITALIAN.2160p.BluRay.x265.10bit.SDR.DTS-HD....

[复制链接]
百度云资源 发表于 2020-9-10 10:16:01 | 显示全部楼层 |阅读模式
-->
帖子完整标题:职业枪手 The.Specialists.1969.ITALIAN.2160p.BluRay.x265.10bit.SDR.DTS-HD.MA.2.0-SWTYBLZ 42.87GB




◎译  名 职业枪手/Le Specialiste/The Specialists/職業鎗手(港)
◎片  名 Gli specialisti
◎年  代 1969
◎产  地 意大利,法国,西德
◎类  别 西部
◎语  言 意大利语
◎上映日期 1969
◎IMDb评分  6.3/10 from 747 users
◎国配电影  www.guopeidy.com
◎片  长 104 分钟
◎导  演 赛尔乔·科尔布奇 Sergio Corbucci
◎编  剧 赛尔乔·科尔布奇 Sergio Corbucci
◎主  演 吉诺·佩尔尼切 Gino Pernice
       Riccardo Pizzuti
       雷纳托·平奇罗利 Renato Pinciroli
       加斯通·莫辛 Gastone Moschin
       贝里奇·蒙迪纳罗 Brizio Montinaro
       塞尔日·马康 Serge Marquand
       西尔薇·费内克 Sylvie Fennec
       Pietro Ceccarelli
       马里奥·阿多夫 Mario Adorf
       弗兰西丝·法比安 Fran?oise Fabian
       安吉拉·露西 Angela Luce
       约翰尼·哈里戴 Johnny Hallyday
       Andrés José Cruz Soublette

◎标  签 意大利 | 1969 | 西部 | western | SergioCorbucci | 西德 | 被忽视的片子 | 法国

◎简  介

  暂无相关剧情介绍
Video
ID                                       : 1
Format                                   : HEVC
Format/Info                              : High Efficiency Video Coding
Codec ID                                 : V_MPEGH/ISO/HEVC
Duration                                 : 1 h 44 min
Bit rate                                 : 56.0 Mb/s
Width                                    : 3 840 pixels
Height                                   : 1 634 pixels
Display aspect ratio                     : 2.35:1
Frame rate mode                          : Constant
Frame rate                               : 24.000 FPS
Color space                              : YUV
Chroma subsampling                       : 4:2:0
Bit depth                                : 10 bits
Bits/(Pixel*Frame)                       : 0.372
Stream size                              : 40.9 GiB (96%)
Title                                    : The.Specialists.1969.ITALIAN.2160p.BluRay.x265.10bit.SDR.DTS-HD.MA.2.0-SWTYBLZ
Writing library                          : x265 3.0ed72af837053:[Windows][GCC 8.2.0][64 bit] 10bit
Encoding settings                        : cpuid=1111039 / frame-threads=6 / numa-pools=40 / wpp / no-pmode / no-pme / no-psnr / no-ssim / log-level=2 / input-csp=1 / input-res=3840x1634 / interlace=0 / total-frames=150461 / level-idc=51 / high-tier=1 / uhd-bd=0 / ref=3 / no-allow-non-conformance / repeat-headers / annexb / aud / hrd / info / hash=0 / no-temporal-layers / no-open-gop / min-keyint=1 / keyint=24 / gop-lookahead=0 / bframes=4 / b-adapt=2 / b-pyramid / bframe-bias=0 / rc-lookahead=25 / lookahead-slices=4 / scenecut=40 / radl=0 / no-splice / no-intra-refresh / ctu=64 / min-cu-size=8 / no-rect / no-amp / max-tu-size=32 / tu-inter-depth=1 / tu-intra-depth=1 / limit-tu=0 / rdoq-level=0 / dynamic-rd=0.00 / no-ssim-rd / signhide / no-tskip / nr-intra=0 / nr-inter=0 / no-constrained-intra / strong-intra-smoothing / max-merge=2 / limit-refs=3 / no-limit-modes / me=1 / subme=2 / merange=57 / temporal-mvp / weightp / no-weightb / no-analyze-src-pics / deblock=0:0 / no-sao / no-sao-non-deblock / rd=3 / no-early-skip / rskip / no-fast-intra / no-tskip-fast / no-cu-lossless / no-b-intra / no-splitrd-skip / rdpenalty=0 / psy-rd=2.00 / psy-rdoq=0.00 / no-rd-refine / no-lossless / cbqpoffs=0 / crqpoffs=0 / rc=crf / crf=16.0 / qcomp=0.60 / qpstep=4 / stats-write=0 / stats-read=0 / vbv-maxrate=160000 / vbv-bufsize=160000 / vbv-init=0.9 / crf-max=0.0 / crf-min=0.0 / ipratio=1.40 / pbratio=1.30 / aq-mode=1 / aq-strength=1.00 / cutree / zone-count=0 / no-strict-cbr / qg-size=32 / no-rc-grain / qpmax=69 / qpmin=0 / no-const-vbv / sar=1 / overscan=0 / videoformat=5 / range=0 / colorprim=2 / transfer=2 / colormatrix=2 / chromaloc=0 / display-window=0 / max-cll=0,0 / min-luma=0 / max-luma=1023 / log2-max-poc-lsb=8 / vui-timing-info / vui-hrd-info / slices=1 / opt-qp-pps / opt-ref-list-length-pps / no-multi-pass-opt-rps / scenecut-bias=0.05 / no-opt-cu-delta-qp / no-aq-motion / no-hdr / no-hdr-opt / no-dhdr10-opt / no-idr-recovery-sei / analysis-reuse-level=5 / scale-factor=0 / refine-intra=0 / refine-inter=0 / refine-mv=0 / refine-ctu-distortion=0 / no-limit-sao / ctu-info=0 / no-lowpass-dct / refine-analysis-type=0 / copy-pic=1 / max-ausize-factor=1.0 / no-dynamic-refine / no-single-sei / no-hevc-aq / qp-adaptation-range=1.00
Default                                  : Yes
Forced                                   : No

Audio #1
ID                                       : 2
ID in the original source medium         : 4353 (0x1101)
Format                                   : DTS XLL
Format/Info                              : Digital Theater Systems
Commercial name                          : DTS-HD Master Audio
Codec ID                                 : A_DTS
Duration                                 : 1 h 44 min
Bit rate mode                            : Variable
Bit rate                                 : 1 779 kb/s
Channel(s)                               : 2 channels
Channel layout                           : L R
Sampling rate                            : 48.0 kHz
Frame rate                               : 93.750 FPS (512 SPF)
Bit depth                                : 24 bits
Compression mode                         : Lossless
Stream size                              : 1.30 GiB (3%)
Title                                    : The.Specialists.1969.ITALIAN.2160p.BluRay.x265.10bit.SDR.DTS-HD.MA.2.0-SWTYBLZ
Language                                 : Italian
Default                                  : Yes
Forced                                   : No
Original source medium                   : Blu-ray

Audio #2
ID                                       : 3
Format                                   : AC-3
Format/Info                              : Audio Coding 3
Commercial name                          : Dolby Digital
Codec ID                                 : A_AC3
Duration                                 : 1 h 44 min
Bit rate mode                            : Constant
Bit rate                                 : 640 kb/s
Channel(s)                               : 2 channels
Channel layout                           : L R
Sampling rate                            : 48.0 kHz
Frame rate                               : 31.250 FPS (1536 SPF)
Compression mode                         : Lossy
Stream size                              : 478 MiB (1%)
Title                                    : The.Specialists.1969.ITALIAN.2160p.BluRay.x265.10bit.SDR.DTS-HD.MA.2.0-SWTYBLZ
Language                                 : Italian
Service kind                             : Complete Main
Default                                  : No
Forced                                   : No

Text #1
ID                                       : 4
Format                                   : UTF-8
Codec ID                                 : S_TEXT/UTF8
Codec ID/Info                            : UTF-8 Plain Text
Duration                                 : 1 h 44 min
Bit rate                                 : 39 b/s
Count of elements                        : 1151
Stream size                              : 30.1 KiB (0%)
Title                                    : English-SRT
Language                                 : English
Default                                  : Yes
Forced                                   : No

Text #2
ID                                       : 5
ID in the original source medium         : 4608 (0x1200)
Format                                   : PGS
Muxing mode                              : zlib
Codec ID                                 : S_HDMV/PGS
Codec ID/Info                            : Picture based subtitle format used on BDs/HD-DVDs
Duration                                 : 1 s 458 ms
Bit rate                                 : 60.5 kb/s
Count of elements                        : 2
Stream size                              : 10.8 KiB (0%)
Title                                    : French-PGS
Language                                 : French
Default                                  : No
Forced                                   : No
Original source medium                   : Blu-ray

Text #3
ID                                       : 6
ID in the original source medium         : 4609 (0x1201)
Format                                   : PGS
Muxing mode                              : zlib
Codec ID                                 : S_HDMV/PGS
Codec ID/Info                            : Picture based subtitle format used on BDs/HD-DVDs
Duration                                 : 1 h 42 min
Bit rate                                 : 21.9 kb/s
Count of elements                        : 2098
Stream size                              : 16.1 MiB (0%)
Title                                    : French-PGS
Language                                 : French
Default                                  : No
Forced                                   : No
Original source medium                   : Blu-ray

Text #4
ID                                       : 7
ID in the original source medium         : 4610 (0x1202)
Format                                   : PGS
Muxing mode                              : zlib
Codec ID                                 : S_HDMV/PGS
Codec ID/Info                            : Picture based subtitle format used on BDs/HD-DVDs
Duration                                 : 1 h 44 min
Bit rate                                 : 27.5 kb/s
Count of elements                        : 2408
Stream size                              : 20.5 MiB (0%)
Title                                    : French-PGS
Language                                 : French
Default                                  : No
Forced                                   : No
Original source medium                   : Blu-ray

Text #5
ID                                       : 8
ID in the original source medium         : 4611 (0x1203)
Format                                   : PGS
Muxing mode                              : zlib
Codec ID                                 : S_HDMV/PGS
Codec ID/Info                            : Picture based subtitle format used on BDs/HD-DVDs
Duration                                 : 1 h 44 min
Bit rate                                 : 24.7 kb/s
Count of elements                        : 2312
Stream size                              : 18.4 MiB (0%)
Title                                    : English-PGS
Language                                 : English
Default                                  : No
Forced                                   : No
Original source medium                   : Blu-ray

Menu
00:00:00.000                             : en:Chapter 01
00:08:25.250                             : en:Chapter 02
00:16:35.125                             : en:Chapter 03
00:23:51.458                             : en:Chapter 04
00:31:20.416                             : en:Chapter 05
00:42:01.875                             : en:Chapter 06
00:53:36.083                             : en:Chapter 07
01:01:30.875                             : en:Chapter 08
01:09:36.375                             : en:Chapter 09
01:17:17.166                             : en:Chapter 10
01:25:27.916                             : en:Chapter 11
01:34:20.458                             : en:Chapter 12




                                                                                                                                                                                                        


12126511c9768adbd098bee35fb3cef4.zip (108.76 KB, 下载次数: 0)

回复

使用道具 举报

小黑屋|百度云资源论坛 |网站地图

本网站所有资源来自网络,如无意中侵犯了您的权益,请发邮件至 [email protected],立即清除相关链接

GMT+8, 2021-1-25 21:49 , Processed in 0.093205 second(s), 28 queries .

Powered by Discuz! X3.2

© 2001-2013 Comsenz Inc.

快速回复 返回顶部 返回列表