百度云资源论坛

 找回密码
 立即注册
搜索

[4K-原盘] 职业枪手 The.Specialists.1969.ITALIAN.2160p.BluRay.REMUX.HEVC.SDR.DTS-HD....

[复制链接]
百度云电影 发表于 2020-9-9 09:57:53 | 显示全部楼层 |阅读模式
-->
帖子完整标题:职业枪手 The.Specialists.1969.ITALIAN.2160p.BluRay.REMUX.HEVC.SDR.DTS-HD.2.0-FGT 46.47GB




◎译  名 职业枪手/Le Specialiste/The Specialists/職業鎗手(港)
◎片  名 Gli specialisti
◎年  代 1969
◎产  地 意大利,法国,西德
◎类  别 西部
◎语  言 意大利语
◎上映日期 1969
◎IMDb评分  6.3/10 from 747 users
◎国配电影  www.guopeidy.com
◎片  长 104 分钟
◎导  演 赛尔乔·科尔布奇 Sergio Corbucci
◎编  剧 赛尔乔·科尔布奇 Sergio Corbucci
◎主  演 吉诺·佩尔尼切 Gino Pernice
       Riccardo Pizzuti
       雷纳托·平奇罗利 Renato Pinciroli
       加斯通·莫辛 Gastone Moschin
       贝里奇·蒙迪纳罗 Brizio Montinaro
       塞尔日·马康 Serge Marquand
       西尔薇·费内克 Sylvie Fennec
       Pietro Ceccarelli
       马里奥·阿多夫 Mario Adorf
       弗兰西丝·法比安 Fran?oise Fabian
       安吉拉·露西 Angela Luce
       约翰尼·哈里戴 Johnny Hallyday
       Andrés José Cruz Soublette

◎标  签 意大利 | 1969 | 西部 | western | SergioCorbucci | 西德 | 被忽视的片子 | 法国

◎简  介

  暂无相关剧情介绍
Video
ID                                       : 1
ID in the original source medium         : 4113 (0x1011)
Format                                   : HEVC
Format/Info                              : High Efficiency Video Coding
Codec ID                                 : V_MPEGH/ISO/HEVC
Duration                                 : 1 h 44 min
Bit rate                                 : 60.0 Mb/s
Width                                    : 3 840 pixels
Height                                   : 2 160 pixels
Display aspect ratio                     : 16:9
Frame rate mode                          : Constant
Frame rate                               : 24.000 FPS
Color space                              : YUV
Chroma subsampling                       : 4:2:0 (Type 2)
Bit depth                                : 10 bits
Bits/(Pixel*Frame)                       : 0.301
Stream size                              : 43.8 GiB (94%)
Title                                    : The.Specialists.1969.ITALIAN.2160p.BluRay.REMUX.HEVC.SDR.DTS-HD.2.0-FGT
Writing library                          : ATEME Titan File 3.8.14 (4.8.14.0)      
Language                                 : English
Default                                  : No
Forced                                   : No
Color range                              : Limited
Color primaries                          : BT.709
Transfer characteristics                 : BT.709
Matrix coefficients                      : BT.709
Original source medium                   : Blu-ray

Audio #1
ID                                       : 2
ID in the original source medium         : 4353 (0x1101)
Format                                   : DTS XLL
Format/Info                              : Digital Theater Systems
Commercial name                          : DTS-HD Master Audio
Codec ID                                 : A_DTS
Duration                                 : 1 h 44 min
Bit rate mode                            : Variable
Bit rate                                 : 1 779 kb/s
Channel(s)                               : 2 channels
Channel layout                           : L R
Sampling rate                            : 48.0 kHz
Frame rate                               : 93.750 FPS (512 SPF)
Bit depth                                : 24 bits
Compression mode                         : Lossless
Stream size                              : 1.30 GiB (3%)
Title                                    : The.Specialists.1969.ITALIAN.2160p.BluRay.REMUX.HEVC.SDR.DTS-HD.2.0-FGT
Language                                 : Italian
Default                                  : Yes
Forced                                   : No
Original source medium                   : Blu-ray

Audio #2
ID                                       : 3
ID in the original source medium         : 4352 (0x1100)
Format                                   : DTS XLL
Format/Info                              : Digital Theater Systems
Commercial name                          : DTS-HD Master Audio
Codec ID                                 : A_DTS
Duration                                 : 1 h 44 min
Bit rate mode                            : Variable
Bit rate                                 : 1 857 kb/s
Channel(s)                               : 2 channels
Channel layout                           : L R
Sampling rate                            : 48.0 kHz
Frame rate                               : 93.750 FPS (512 SPF)
Bit depth                                : 24 bits
Compression mode                         : Lossless
Stream size                              : 1.36 GiB (3%)
Title                                    : The.Specialists.1969.ITALIAN.2160p.BluRay.REMUX.HEVC.SDR.DTS-HD.2.0-FGT
Language                                 : French
Default                                  : No
Forced                                   : No
Original source medium                   : Blu-ray

Text #1
ID                                       : 4
Format                                   : UTF-8
Codec ID                                 : S_TEXT/UTF8
Codec ID/Info                            : UTF-8 Plain Text
Duration                                 : 1 h 44 min
Bit rate                                 : 39 b/s
Count of elements                        : 1151
Stream size                              : 30.1 KiB (0%)
Title                                    : English-SRT
Language                                 : English
Default                                  : Yes
Forced                                   : No

Text #2
ID                                       : 5
ID in the original source medium         : 4608 (0x1200)
Format                                   : PGS
Muxing mode                              : zlib
Codec ID                                 : S_HDMV/PGS
Codec ID/Info                            : Picture based subtitle format used on BDs/HD-DVDs
Duration                                 : 1 s 479 ms
Bit rate                                 : 59.7 kb/s
Count of elements                        : 2
Stream size                              : 10.8 KiB (0%)
Title                                    : French-PGS
Language                                 : French
Default                                  : No
Forced                                   : No
Original source medium                   : Blu-ray

Text #3
ID                                       : 6
ID in the original source medium         : 4609 (0x1201)
Format                                   : PGS
Muxing mode                              : zlib
Codec ID                                 : S_HDMV/PGS
Codec ID/Info                            : Picture based subtitle format used on BDs/HD-DVDs
Duration                                 : 1 h 42 min
Bit rate                                 : 21.9 kb/s
Count of elements                        : 2098
Stream size                              : 16.1 MiB (0%)
Title                                    : French-PGS
Language                                 : French
Default                                  : No
Forced                                   : No
Original source medium                   : Blu-ray

Text #4
ID                                       : 7
ID in the original source medium         : 4610 (0x1202)
Format                                   : PGS
Muxing mode                              : zlib
Codec ID                                 : S_HDMV/PGS
Codec ID/Info                            : Picture based subtitle format used on BDs/HD-DVDs
Duration                                 : 1 h 44 min
Bit rate                                 : 27.5 kb/s
Count of elements                        : 2408
Stream size                              : 20.5 MiB (0%)
Title                                    : French-PGS
Language                                 : French
Default                                  : No
Forced                                   : No
Original source medium                   : Blu-ray

Text #5
ID                                       : 8
ID in the original source medium         : 4611 (0x1203)
Format                                   : PGS
Muxing mode                              : zlib
Codec ID                                 : S_HDMV/PGS
Codec ID/Info                            : Picture based subtitle format used on BDs/HD-DVDs
Duration                                 : 1 h 44 min
Bit rate                                 : 24.7 kb/s
Count of elements                        : 2312
Stream size                              : 18.4 MiB (0%)
Title                                    : English-PGS
Language                                 : English
Default                                  : No
Forced                                   : No
Original source medium                   : Blu-ray

Menu
00:00:00.000                             : en:Chapter 01
00:08:25.250                             : en:Chapter 02
00:16:35.125                             : en:Chapter 03
00:23:51.458                             : en:Chapter 04
00:31:20.416                             : en:Chapter 05
00:42:01.875                             : en:Chapter 06
00:53:36.083                             : en:Chapter 07
01:01:30.875                             : en:Chapter 08
01:09:36.375                             : en:Chapter 09
01:17:17.166                             : en:Chapter 10
01:25:27.916                             : en:Chapter 11
01:34:20.458                             : en:Chapter 12






a6899d0821e0196b158c7f0fc61277ee.zip (116.89 KB, 下载次数: 0)

回复

使用道具 举报

小黑屋|百度云资源论坛 |网站地图

本网站所有资源来自网络,如无意中侵犯了您的权益,请发邮件至 [email protected],立即清除相关链接

GMT+8, 2020-9-26 19:00 , Processed in 0.130819 second(s), 23 queries .

Powered by Discuz! X3.2

© 2001-2013 Comsenz Inc.

快速回复 返回顶部 返回列表